EXSite.pl - Portal ze wszystkim Mamy tutaj wszystko

NIE MASZ JESZCZE KONTA? ZAREJESTRUJ SIĘ ZA DARMO!   
Przypomnij hasło X

W Chmurach / Up In The Air (2009) PL.DVDRip.XviD-MCK / Lektor PL

Dodał: Marrakech 1 Maj 2013 12:39


W Chmurach / Up In The Air (2009) PL.DVDRip.XviD-MCK


W Chmurach / Up In The Air (2009) PL.DVDRip.XviD-MCK / Lektor PL

Ryan (George Clooney) to człowiek który przez rok w samolocie jako pasażer przeleciał 350 tyś. mil z czego dla porównania na księżyc jest 250 tyś. mil. Jego życiowy cel to 10 mln. mil. Lata od miasta do miasta i wyrzuca ludzi z pracy podczas panującego kryzysu. Poznaje Alex (Vera Farmiga) dzięki której uświadamia sobie, że w życiu także ważne są relacje międzyludzkie. Gdy osiąga swój cel dziesięciu milionów mil czuje, że to go nie usatysfakcjonowało...

W Chmurach / Up In The Air (2009) PL.DVDRip.XviD-MCK / Lektor PL W Chmurach / Up In The Air (2009) PL.DVDRip.XviD-MCK / Lektor PL



DOWNLOAD LiNKS - 1PART=400MB:
Bez hasła || 2% danych naprawczych || Można pobierać na przemian

Uwaga! Linki nie zakodowane tylko dla zarejestrowanych użytkowników!

Nie masz konta? Zarejestruj się za darmo!
----------------
Links are not encoded only for registered users only! Plese login or register!


Uwaga! Linki nie zakodowane tylko dla zarejestrowanych użytkowników!

Nie masz konta? Zarejestruj się za darmo!
----------------
Links are not encoded only for registered users only! Plese login or register!


Uwaga! Linki nie zakodowane tylko dla zarejestrowanych użytkowników!

Nie masz konta? Zarejestruj się za darmo!
----------------
Links are not encoded only for registered users only! Plese login or register!


Uwaga! Linki nie zakodowane tylko dla zarejestrowanych użytkowników!

Nie masz konta? Zarejestruj się za darmo!
----------------
Links are not encoded only for registered users only! Plese login or register!


Uwaga! Linki nie zakodowane tylko dla zarejestrowanych użytkowników!

Nie masz konta? Zarejestruj się za darmo!
----------------
Links are not encoded only for registered users only! Plese login or register!



Użytkownik VIP

smrodek11Użytkownik

#1 | Dodany: 1 Maj 2013 12:39

General
Format : AVI
Format/Info : Audio Video Interleave
File size : 700 MiB
Duration : 1h 49mn
Overall bit rate : 894 Kbps
Writing application : VirtualDubMod 1.5.10.2 (build 2540/release)
Writing library : VirtualDubMod build 2540/release

Video
ID : 0
Format : MPEG-4 Visual
Format profile : Advanced Simple@L5
Format settings, BVOP : 2
Format settings, QPel : No
Format settings, GMC : No warppoints
Format settings, Matrix : Default (H.263)
Muxing mode : Packed bitstream
Codec ID : XVID
Codec ID/Hint : XviD
Duration : 1h 49mn
Bit rate : 773 Kbps
Width : 608 pixels
Height : 320 pixels
Display aspect ratio : 1.900
Frame rate : 23.976 fps
Color space : YUV
Chroma subsampling : 4:2:0
Bit depth : 8 bits
Scan type : Progressive
Compression mode : Lossy
Bits/(Pixel*Frame) : 0.166
Stream size : 605 MiB (86%)
Writing library : XviD 1.2.1 (UTC 2008-12-04)

Audio
ID : 1
Format : MPEG Audio
Format version : Version 1
Format profile : Layer 3
Mode : Joint stereo
Mode extension : MS Stereo
Codec ID : 55
Codec ID/Hint : MP3
Duration : 1h 49mn
Bit rate mode : Constant
Bit rate : 112 Kbps
Channel(s) : 2 channels
Sampling rate : 44.1 KHz
Compression mode : Lossy
Delay relative to video : 26ms
Stream size : 87.6 MiB (13%)
Alignment : Split accross interleaves
Interleave, duration : 42 ms (1.00 video frame)
Interleave, preload duration : 500 ms



Download:

Egofiles:

Uwaga! Linki nie zakodowane tylko dla zarejestrowanych użytkowników!

Nie masz konta? Zarejestruj się za darmo!
----------------
Links are not encoded only for registered users only! Plese login or register!


Catshare:

Uwaga! Linki nie zakodowane tylko dla zarejestrowanych użytkowników!

Nie masz konta? Zarejestruj się za darmo!
----------------
Links are not encoded only for registered users only! Plese login or register!


Turbobit:

Uwaga! Linki nie zakodowane tylko dla zarejestrowanych użytkowników!

Nie masz konta? Zarejestruj się za darmo!
----------------
Links are not encoded only for registered users only! Plese login or register!
Użytkownik VIP

MarrakechVIP

#2 | Dodany: 1 Maj 2013 12:40

brawo

Informacje

Jeżeli chcesz skomentować artykuł musisz być zarejestrowany na stronie.