EXSite.pl - Portal ze wszystkim Mamy tutaj wszystko

NIE MASZ JESZCZE KONTA? ZAREJESTRUJ SIĘ ZA DARMO!   
Przypomnij hasło X

Juno (2007) PL.BluRay.720p.x264-LTN + mHD

Dodał: H1s 6 Grudzień 2011 06:39


Juno (2007) PL.BluRay.720p.x264-LTN

Juno (2007) PL.BluRay.720p.x264-LTN + mHD

Pierwszy sex i od razu wpadka. Oto dramat z niesamowicie wkomponowanym humorem, przedstawiający historię szesnastoletniej Juno, która w bardzo nietypowy sposób podchodzi to spraw związanych z niechcianym zajściem w ciążę. Nie tracąc zimnej krwi, razem z przyjaciółką Leą dziewczyna szuka idealnej pary dla swego jeszcze nienarodzonego dziecka, a w międzyczasie próbuje nadążyć za zmianami jakie w niej zachodzą.

Juno HD 720p Lektor PL / EN
NAZWA RELEASU: Juno.2007.PL.BluRay.720p.x264-LTN
ŹRÓDŁO: Juno.2007.720p.BluRay.DTS.x264-ESiR
OGÓLNE: Matroska, mkv, 4.61GB, 1h 36mn 4s 685ms
WIDEO: 1280x692 (720p), AVC ~ 4915 Kbps, FPS: 23.976, High@L5.1
AUDIO: Polski Lektor AC3 5.1 ~ 448 kbps, Angielski DTS 5.1 ~ 1536 kbps
NAPISY: Pol - TXT, Eng - UTF-8
INFORMACJE EXTRA: Party można pobierać naprzemiennie, Party zawierają dane naprawcze

FileServe:
Uwaga! Linki nie zakodowane tylko dla zarejestrowanych użytkowników!

Nie masz konta? Zarejestruj się za darmo!
----------------
Links are not encoded only for registered users only! Plese login or register!


FileSonic:
Uwaga! Linki nie zakodowane tylko dla zarejestrowanych użytkowników!

Nie masz konta? Zarejestruj się za darmo!
----------------
Links are not encoded only for registered users only! Plese login or register!


Juno.2007.PL.BluRay.m720p.x264-LTN
ŹRÓDŁO: Juno.2007.PL.BluRay.720p.x264-LTN
OGÓLNE: Matroska, mkv, 2.18 GB, 1h 36mn 4s 926ms
WIDEO: 1280x692 (720p), x264 ~ 2808 Kbps, FPS: 23.976, High@L4.1, 16:9
AUDIO: Polski Lektor (profesjonalny) AC3 5.1 ~ 448 kbps
NAPISY: Brak
INFORMACJE EXTRA: Party można pobierać naprzemiennie, Party zawierają dane naprawcze


FileSonic:
Uwaga! Linki nie zakodowane tylko dla zarejestrowanych użytkowników!

Nie masz konta? Zarejestruj się za darmo!
----------------
Links are not encoded only for registered users only! Plese login or register!


FileServe:
Uwaga! Linki nie zakodowane tylko dla zarejestrowanych użytkowników!

Nie masz konta? Zarejestruj się za darmo!
----------------
Links are not encoded only for registered users only! Plese login or register!


UploadStation:
Uwaga! Linki nie zakodowane tylko dla zarejestrowanych użytkowników!

Nie masz konta? Zarejestruj się za darmo!
----------------
Links are not encoded only for registered users only! Plese login or register!


FileJungle:
Uwaga! Linki nie zakodowane tylko dla zarejestrowanych użytkowników!

Nie masz konta? Zarejestruj się za darmo!
----------------
Links are not encoded only for registered users only! Plese login or register!


Użytkownik VIP

CrashRedVIP

#1 | Dodany: 16 Październik 2011 18:20

[size=2]Juno (2007) PL.720p.BluRay.x264-Crash / POLSKI LEKTOR[/size]



Format : Matroska
File size : 3.60 GiB
Duration : 1h 36mn
Overall bit rate : 5 367 Kbps
Video
ID : 1
Format : AVC
Format/Info : Advanced Video Codec
Format profile : High@L5.1
Duration : 1h 36mn
Bit rate : 4 723 Kbps
Width : 1 280 pixels
Height : 692 pixels
Display aspect ratio : 1.850
Frame rate : 23.976 fps
Stream size : 3.23 GiB (90%)
Writing library : x264 core 58 svn-736M
Language : English
Audio
Format : AC-3
Duration : 1h 36mn
Bit rate mode : Constant
Bit rate : 448 Kbps
Channel(s) : 6 channels
Stream size : 308 MiB (8%)
Title : Crash-Polski
Language : Polish


Uwaga! Linki nie zakodowane tylko dla zarejestrowanych użytkowników!

Nie masz konta? Zarejestruj się za darmo!
----------------
Links are not encoded only for registered users only! Plese login or register!


Informacje

Jeżeli chcesz skomentować artykuł musisz być zarejestrowany na stronie.