EXSite.pl - Portal ze wszystkim Mamy tutaj wszystko

NIE MASZ JESZCZE KONTA? ZAREJESTRUJ SIĘ ZA DARMO!   
Przypomnij hasło X

Egzekutor / Eraser (1996) PL.720p.BluRay.x264-MiELONY

Dodał: MiELONY 3 Październik 2011 22:20


Egzekutor / Eraser (1996) PL.720p.BluRay.x264-MiELONY

Egzekutor / Eraser (1996) PL.720p.BluRay.x264-MiELONY



OPiS / iNFO

John Kruger (Arnold Schwarzenegger) to najlepszy agent specjalny z elitarnej grupy oficerów pracujących dla Programu Ochrony świadków. Kiedy zawodzi wszystko i nie ma już nadziei, wtedy wkracza do akcji Kruger. Ocala świadków, niszcząc wszelkie dowody ich istnienia. To jedyny sposób, by uchronić ich przed śmiertelnym niebezpiecze?stwem. Lee Cullen (Vanessa Williams) pracuje w Departamencie Obrony. Przypadkowo odkrywa plan przekazania supernowoczesnej i szalenie niebezpiecznej broni w ręce terrorystów. Zawiadamia FBI nie wiedząc, iż spisek sięga znacznie wyżej...




DANE TECHNiCZNE / RELEASE .NFO

Format : Matroska at 4.748 Kb/s
Length : 3,80 GB for 1h 54 min. 34s 560ms

Video #0 : AVC at 4.368 Kb/s
Aspect : 1280 x 534 (2.397) at 23.976 fps

Audio #0 : AC3 at 384 Kb/s
Infos : 6 kanałów, 48,0 KHz

SOURCE: CHD [thx!]


WiELKOśĆ UPLOADU....: 3,80 GB
RODZAJ KOMPRESJI....: *.RAR
ZAWARTOśĆ UPLOADU...: *.MKV
WERSJA J?ZYKOWA.....: LEKTOR PL
DANE NAPRAWCZE......: 5%
HASŁO...............: BRAK



ZDJ?CiA / SCREENS

Egzekutor / Eraser (1996) PL.720p.BluRay.x264-MiELONY

Egzekutor / Eraser (1996) PL.720p.BluRay.x264-MiELONY

Egzekutor / Eraser (1996) PL.720p.BluRay.x264-MiELONY





POBiERZ / DOWNLOAD

Uwaga! Tekst widoczny tylko dla zarejestrowanych użytkowników!

Nie masz konta? Zarejestruj się za darmo!
----------------
This content is visible to registered users only! Plese login or register!
      Wyświetlenia: 764
Użytkownik VIP

CrashRedVIP

#1 | Dodany: 3 Październik 2011 23:42

Egzekutor / Eraser (1996) PL.720p.BluRay.x264-Crash POLSKI LEKTOR

Format : Matroska
File size : 4.16 GiB
Duration : 1h 54mn
Overall bit rate : 5 199 Kbps
Movie name : Eraser (1996)
Video
ID : 1
Format/Info : Advanced Video Codec
Format profile : High@L3.1
Duration : 1h 54mn
Bit rate : 4 813 Kbps
Width : 1 280 pixels
Height : 534 pixels
Display aspect ratio : 2.35:1
Frame rate : 23.976 fps
Stream size : 3.77 GiB (91%)
Writing library : x264 core 61 r947M af82aae
Language : English
Audio
Format : AC-3
Codec ID : A_AC3
Duration : 1h 54mn
Bit rate mode : Constant
Bit rate : 384 Kbps
Channel(s) : 6 channels
Stream size : 315 MiB (7%)
Title : Crash-Polski
Language : Polish



Egzekutor / Eraser (1996) PL.720p.BluRay.x264-Crash POLSKI LEKTOR

Uwaga! Tekst widoczny tylko dla zarejestrowanych użytkowników!

Nie masz konta? Zarejestruj się za darmo!
----------------
This content is visible to registered users only! Plese login or register!

Użytkownik VIP

dejajnikUżytkownik

#2 | Dodany: 4 Październik 2011 13:20

ma ktoś może film Pręgi w Wersji DVD5 ?
będę bardzo wdzięczny za wstawienie.
Użytkownik VIP

aurelia12345Użytkownik

#3 | Dodany: 18 Maj 2014 22:10

Egzekutor / Eraser (1996) PL.720p.BRRip.XviD.AC3-LTS Lektor PL


Uwaga! Tekst widoczny tylko dla zarejestrowanych użytkowników!

Nie masz konta? Zarejestruj się za darmo!
----------------
This content is visible to registered users only! Plese login or register!


Uwaga! Tekst widoczny tylko dla zarejestrowanych użytkowników!

Nie masz konta? Zarejestruj się za darmo!
----------------
This content is visible to registered users only! Plese login or register!


Uwaga! Tekst widoczny tylko dla zarejestrowanych użytkowników!

Nie masz konta? Zarejestruj się za darmo!
----------------
This content is visible to registered users only! Plese login or register!


Uwaga! Tekst widoczny tylko dla zarejestrowanych użytkowników!

Nie masz konta? Zarejestruj się za darmo!
----------------
This content is visible to registered users only! Plese login or register!


Uwaga! Tekst widoczny tylko dla zarejestrowanych użytkowników!

Nie masz konta? Zarejestruj się za darmo!
----------------
This content is visible to registered users only! Plese login or register!


Uwaga! Tekst widoczny tylko dla zarejestrowanych użytkowników!

Nie masz konta? Zarejestruj się za darmo!
----------------
This content is visible to registered users only! Plese login or register!

Informacje

Jeżeli chcesz skomentować artykuł musisz być zarejestrowany na stronie.