EXSite.pl - Portal ze wszystkim Mamy tutaj wszystko

NIE MASZ JESZCZE KONTA? ZAREJESTRUJ SIĘ ZA DARMO!   
Przypomnij hasło X

Duchy Marsa / Ghosts of Mars (2001) PL.720.BluRay.264.Crash / POLSKI LEKTOR +mHD

Dodał: CrashRed 4 Grudzień 2011 19:19


Duchy Marsa / Ghosts of Mars (2001) PL.720.BluRay.264.Crash POLSKI LEKTOR

Duchy Marsa / Ghosts of Mars (2001) PL.720.BluRay.264.Crash / POLSKI LEKTOR +mHD

Duchy Marsa / Ghosts of Mars (2001) PL.720.BluRay.264.Crash / POLSKI LEKTOR +mHD
http://www.filmweb.pl/film/Duchy+Marsa-2001-5825

czas trwania: 1 godz. 38 min.
gatunek: Horror, Akcja, Sci-Fi
premiera: 24 sierpnia 2001 (świat) 2001-08-24
reżyseria: John Carpenter
scenariusz: John Carpenter, Larry Sulkis

Ziemia, 23 stulecie. Ludzie już dawno skolonizowali Marsa. Międzygalaktyczna pani policjant, Melania Bellard i jej oddział dostają zaanie przetransporotwnaia niezwykle groźnego przestępcy Desolation Williams do więzienia w marsja?skim mieście o wdzięcznej nazwie Chryse. Po lądowaniu na czerwonej planecie okazuje się że oddział górników uwolnił duchy starożytnych marsja?skich wojowników, którzy od setek lat z ukrycia strzegą swojej planety.... Oddziął Ballard i przestępca, którego eskortują będzie musiał stwaić czoła...duchom Marsa....



Duchy Marsa / Ghosts of Mars (2001) PL.720.BluRay.264.Crash / POLSKI LEKTOR +mHD
Duchy Marsa / Ghosts of Mars (2001) PL.720.BluRay.264.Crash / POLSKI LEKTOR +mHD

Format : Matroska
File size : 2.43 GiB
Duration : 1h 38mn
Overall bit rate : 3 547 Kbps
Video
ID : 1
Format : AVC
Format/Info : Advanced Video Codec
Format profile : High@L4.1
Duration : 1h 38mn
Bit rate : 2 950 Kbps
Width : 1 280 pixels
Height : 544 pixels
Display aspect ratio : 2.35:1
Frame rate mode : Variable
Frame rate : 23.976 fps
Stream size : 1.94 GiB (80%)
Writing library : x264 core 93 r1542 5b86182
Audio
Format : AC-3
Duration : 1h 38mn
Bit rate mode : Constant
Bit rate : 640 Kbps
Channel(s) : 6 channels
Stream size : 449 MiB (18%)
Title : Crash-Polski
Language : Polish



Duchy Marsa / Ghosts of Mars (2001) PL.720.BluRay.264.Crash / POLSKI LEKTOR +mHD
Uwaga! Linki nie zakodowane tylko dla zarejestrowanych użytkowników!

Nie masz konta? Zarejestruj się za darmo!
----------------
Links are not encoded only for registered users only! Plese login or register!






Duchy Marsa / Ghosts of Mars (2001) PL.720p.BluRay.DTS.x264-Crash POLSKI LEKTOR

Format : Matroska
File size : 4.66 GiB
Duration : 1h 38mn
Overall bit rate : 6 802 Kbps
Format/Info : Advanced Video Codec
Format profile : High@L4.1
Duration : 1h 38mn
Bit rate : 4 648 Kbps
Width : 1 280 pixels
Height : 532 pixels
Display aspect ratio : 2.40:1
Frame rate : 23.976 fps
Stream size : 3.10 GiB (66%)
Writing library : x264 core 67 r1129M c109c8e
Language : English
Audio #1
Format : DTS
Duration : 1h 38mn
Bit rate mode : Constant
Bit rate : 1 510 Kbps
Channel(s) : 6 channels
Stream size : 1.03 GiB (22%)
Language : English
Audio #2
Format : AC-3
Duration : 1h 38mn
Bit rate mode : Constant
Bit rate : 640 Kbps
Channel(s) : 6 channels
Stream size : 449 MiB (9%)
Title : Crash-Polski

Uwaga! Linki nie zakodowane tylko dla zarejestrowanych użytkowników!

Nie masz konta? Zarejestruj się za darmo!
----------------
Links are not encoded only for registered users only! Plese login or register!




Użytkownik VIP

CrashRedVIP

#1 | Dodany: 8 Październik 2011 18:47

ok
Użytkownik VIP

mimixddUżytkownik

#2 | Dodany: 25 Styczeń 2013 19:11

ale kicha

Informacje

Jeżeli chcesz skomentować artykuł musisz być zarejestrowany na stronie.