EXSite.pl - Portal ze wszystkim Mamy tutaj wszystko

NIE MASZ JESZCZE KONTA? ZAREJESTRUJ SIĘ ZA DARMO!   
Przypomnij hasło X

Koszmar z ulicy Wiązów 1-8 / A Nightmare on Elm Street 1-8 (1984-2010) PL.720p.BluRay.x264-Crash / POLSKI LEKTOR +mHD

Dodał: CrashRed 18 Grudzień 2011 14:59


Koszmar z ulicy Wiązów / A Nightmare on Elm Street (1984) PL.720p.BluRay.x264-Crash / POLSKI LEKTOR

Koszmar z ulicy Wiązów 1-8 / A Nightmare on Elm Street 1-8 (1984-2010)  PL.720p.BluRay.x264-Crash / POLSKI LEKTOR +mHD

Koszmar z ulicy Wiązów 1-8 / A Nightmare on Elm Street 1-8 (1984-2010)  PL.720p.BluRay.x264-Crash / POLSKI LEKTOR +mHD
http://www.filmweb.pl/Koszmar.Z.Ulicy.Wiazow#

czas trwania: 1 godz. 31 min.
gatunek: Horror
premiera: 9 listopada 1984 (świat) 1984-11-09
reżyseria: Wes Craven
scenariusz: Wes Craven

Tinę Gray (Amanda Wyss) nękają koszmary senne o ścigającym ją tajemniczym mordercy o spalonej twarzy i nożami zamiast palców. Pewnej nocy Tina zaprasza do domu swojego chłopaka Roda (Jsu Garcia) i dwójkę przyjaciół - Nancy (Heather Langenkamp) i Glena (Johnny Depp). Wszyscy śnią o tym samym zabójcy. We śnie Tina zostaje zamordowana przez tajemniczego psychopatę. Rod, który przebywał w tym czasie w pokoju zostaje uznany za winnego i aresztowany. Nancy uświadamia sobie, że wszyscy są terroryzowani


Koszmar z ulicy Wiązów 1-8 / A Nightmare on Elm Street 1-8 (1984-2010)  PL.720p.BluRay.x264-Crash / POLSKI LEKTOR +mHD
Koszmar z ulicy Wiązów 1-8 / A Nightmare on Elm Street 1-8 (1984-2010)  PL.720p.BluRay.x264-Crash / POLSKI LEKTOR +mHD

S:AUDIO: HDBT
Format : Matroska
File size : 4.37 GiB
Duration : 1h 31mn
Overall bit rate : 6 864 Kbps
Video
ID : 1
Format : AVC
Format/Info : Advanced Video Codec
Format profile : High@L3.1
Format settings, CABAC : Yes
Format settings, ReFrames : 5 frames
Codec ID : V_MPEG4/ISO/AVC
Duration : 1h 31mn
Bit rate : 6 417 Kbps
Width : 1 280 pixels
Height : 720 pixels
Display aspect ratio : 16:9
Frame rate : 23.976 fps
Stream size : 4.00 GiB (91%)
Writing library : x264 core 61 r957 7ce0f2c
Language : English
Audio
ID : 2
Format : AC-3
Duration : 1h 31mn
Bit rate mode : Constant
Bit rate : 448 Kbps
Channel(s) : 6 channels
Stream size : 292 MiB (7%)
Title : Crash-Polski



Koszmar z ulicy Wiązów 1-8 / A Nightmare on Elm Street 1-8 (1984-2010)  PL.720p.BluRay.x264-Crash / POLSKI LEKTOR +mHD
Uwaga! Linki nie zakodowane tylko dla zarejestrowanych użytkowników!

Nie masz konta? Zarejestruj się za darmo!
----------------
Links are not encoded only for registered users only! Plese login or register!







Koszmar z ulicy Wiązów 2: Zemsta Freddy'ego / A Nightmare on Elm Street Part 2: Freddy's Revenge (1985) PL.720p.bluray.x264-Crash / POLSKI LEKTOR

Koszmar z ulicy Wiązów 1-8 / A Nightmare on Elm Street 1-8 (1984-2010)  PL.720p.BluRay.x264-Crash / POLSKI LEKTOR +mHD

http://www.filmweb.pl/film/Koszmar+z+ulicy+Wi%C4%85z%C3%B3w+2+Zemsta+Freddy%27ego-1985-32219

czas trwania: 1 godz. 27 min.
gatunek: Horror
premiera: 1 listopada 1985 (świat) 1985-11-01
reżyseria: Jack Sholder
scenariusz: David Chaskin

W tym samym domu, w którym kiedyś mieszkała Tina Gray ze swoją matką, teraz mieszka rodzina Walsh'ów. Jessy (Mark Patton) - pierworodny syn ma te same koszmary, które dręczyły poprzednią lokatorkę. Dowiaduje się o niej i jej problemach z pamiętnika znalezionego przez jego dziewczynę Lisę (Kim Myers). Jego rodzice nie są dla niego oparciem. Ojciec oskarża go o branie narkotyków, matka zaś podejrzewa chorobę psychiczną. Natomiast Freddy (Robert Englund) nie chce już sam zabijać i po demonstracji swoich możliwości daje do zrozumienia Jessy'emu, że oczekuje tego od niego.

Koszmar z ulicy Wiązów 1-8 / A Nightmare on Elm Street 1-8 (1984-2010)  PL.720p.BluRay.x264-Crash / POLSKI LEKTOR +mHD
Koszmar z ulicy Wiązów 1-8 / A Nightmare on Elm Street 1-8 (1984-2010)  PL.720p.BluRay.x264-Crash / POLSKI LEKTOR +mHD

S:AUDIO: HDBT
Format : Matroska
File size : 3.74 GiB
Duration : 1h 25mn
Overall bit rate : 6 246 Kbps
Video
ID : 1
Format : AVC
Format/Info : Advanced Video Codec
Format profile : High@L4.1
Duration : 1h 25mn
Bit rate : 5 798 Kbps
Width : 1 280 pixels
Height : 720 pixels
Display aspect ratio : 16:9
Frame rate : 23.976 fps
Stream size : 3.39 GiB (91%)
Writing library : x264 core 118 r2085 8a62835
Language : English
Audio
ID : 2
Format : AC-3
Duration : 1h 25mn
Bit rate mode : Constant
Bit rate : 448 Kbps
Channel(s) : 6 channels
Stream size : 274 MiB (7%)
Title : Crash-Polski


Uwaga! Linki nie zakodowane tylko dla zarejestrowanych użytkowników!

Nie masz konta? Zarejestruj się za darmo!
----------------
Links are not encoded only for registered users only! Plese login or register!








Koszmar z ulicy Wiązów 3: Wojownicy snów / A Nightmare On Elm Street 3: Dream Warriors (1987) PL.720p.bluray.x264-Crash

Koszmar z ulicy Wiązów 1-8 / A Nightmare on Elm Street 1-8 (1984-2010)  PL.720p.BluRay.x264-Crash / POLSKI LEKTOR +mHD

http://www.filmweb.pl/film/Koszmar+z+ulicy+Wi%C4%85z%C3%B3w+3+Wojownicy+sn%C3%B3w-1987-6855

czas trwania: 1 godz. 36 min.
gatunek: Horror
premiera: 27 lutego 1987 (świat) 1987-02-27
reżyseria: Chuck Russell
scenariusz: Wes Craven, Frank Darabont

A Nightmare on Elm Street jest tymczasem niezwykłym studium lęku, historią z pogranicza jawy i snu, pełną zdumiewających efektów specjalnych. Akcja dzieje się w niewielkim miasteczku, w którym nagle dochodzi do całej serii samobójstw wśród nastolatków. Kristen Parker, dziewczyna dręczona powracającymi koszmarami sennymi, trafia do szpitala psychiatrycznego po nieudanej próbie odebrania sobie życia. Wraz z całą grupą młodych ludzi z podobnymi problemami, jest pod opieką młodej lekarki, specjalizującej się w zaburzeniach snu.

Koszmar z ulicy Wiązów 1-8 / A Nightmare on Elm Street 1-8 (1984-2010)  PL.720p.BluRay.x264-Crash / POLSKI LEKTOR +mHD
Koszmar z ulicy Wiązów 1-8 / A Nightmare on Elm Street 1-8 (1984-2010)  PL.720p.BluRay.x264-Crash / POLSKI LEKTOR +mHD

Format : Matroska
File size : 3.65 GiB
Duration : 1h 36mn
Overall bit rate : 5 417 Kbps
Video
ID : 1
Format : AVC
Format profile : High@L4.1
Duration : 1h 36mn
Bit rate : 4 972 Kbps
Width : 1 280 pixels
Height : 720 pixels
Display aspect ratio : 16:9
Frame rate : 23.976 fps
Stream size : 3.28 GiB (90%)
Writing library : x264 core 118 r2085 8a62835
Language : English
Audio
ID : 2
Format : AC-3
Duration : 1h 36mn
Bit rate mode : Constant
Bit rate : 448 Kbps
Channel(s) : 6 channels
Stream size : 310 MiB (8%)
Title : Crash-Polski


[code]Na wszelki wypadek dodałem zabezpieczony linki dzieki temu nie zostaną skasowane

FILESONIC
http://linksafe.me/d/f97f79ed0c
http://linksafe.me/d/97fe58d1ce
http://linksafe.me/d/4fdcd94839
http://linksafe.me/d/4f137dcef1
http://linksafe.me/d/53d345ed63
http://linksafe.me/d/fdb43c5072
http://linksafe.me/d/8ae7809a82
http://linksafe.me/d/a8d4e7bf5a
http://linksafe.me/d/1c0e28124b

Potrzebny jDownloader, kopiujemy powyższy link, zostanie on automatycznie wczytany do programu,
po tym automatycznie wczytają nam się linki.

Na wszelki wypadek dodałem zabezpieczony linki dzieki temu nie zostaną skasowane

FILESERVE
http://linksafe.me/d/5a55811f46
http://linksafe.me/d/afa62b3a90
http://linksafe.me/d/f51b473b3e
http://linksafe.me/d/d6d7f91119
http://linksafe.me/d/9b61ca211a
http://linksafe.me/d/1d7db23d46
http://linksafe.me/d/0b03a8181f
http://linksafe.me/d/cf74fce1ed
http://linksafe.me/d/8f4052eac0

Potrzebny jDownloader, kopiujemy powyższy link, zostanie on automatycznie wczytany do programu,
po tym automatycznie wczytają nam się linki.


Na wszelki wypadek dodałem zabezpieczony linki dzieki temu nie zostaną skasowane

UPLOADSTATION
http://linksafe.me/d/0fbb3bf6ec
http://linksafe.me/d/39a964c0c9
http://linksafe.me/d/788d38bb75
http://linksafe.me/d/55351513b7
http://linksafe.me/d/1aea16bb53
http://linksafe.me/d/cfbaf8ab29
http://linksafe.me/d/5c5f770567
http://linksafe.me/d/89da5f72d4
http://linksafe.me/d/7bbe6f2c6f

Potrzebny jDownloader, kopiujemy powyższy link, zostanie on automatycznie wczytany do programu,
po tym automatycznie wczytają nam się linki.

Na wszelki wypadek dodałem zabezpieczony linki dzieki temu nie zostaną skasowane

FILEJUNGLE
http://linksafe.me/d/5f309e0b5a
http://linksafe.me/d/62f3a012ac
http://linksafe.me/d/cc8b36e1bb
http://linksafe.me/d/974b20fef2
http://linksafe.me/d/78c5028b62
http://linksafe.me/d/7e541b6fd6
http://linksafe.me/d/7f73a658f8
http://linksafe.me/d/94d2f3244c
http://linksafe.me/d/ce4efe6829

Potrzebny jDownloader, kopiujemy powyższy link, zostanie on automatycznie wczytany do programu,
po tym automatycznie wczytają nam się linki.

[/code]










Koszmar z ulicy Wiązów 4: Władca snów / A Nightmare On Elm Street 4: The Dream Master (1988) PL.720p.BluRay.x264-Crash / POLSKI LEKTOR


Koszmar z ulicy Wiązów 1-8 / A Nightmare on Elm Street 1-8 (1984-2010)  PL.720p.BluRay.x264-Crash / POLSKI LEKTOR +mHD

http://www.filmweb.pl/film/Koszmar+z+ulicy+Wi%C4%85z%C3%B3w+4+W%C5%82adca+sn%C3%B3w-1988-34297

czas trwania: 1 godz. 39 min.
gatunek: Horror
premiera: 19 sierpnia 1988 (świat) 1988-08-19
reżyseria: Renny Harlin
scenariusz: William Kotzwinkle, Brian Helgeland (więcej...)

Kristen (Tuesday Knight), Kincaid (Ken Sagoes) i Joey (Rodney Eastman) są jedynymi ocalałymi z poprzedniego koszmaru. Jednak Freddy (Robert Englund) postanowił się o nich upomnieć i po kolei zabił ich wszystkich w okrutny sposób. Tuż przed śmiercią Kristen przekazuje swój dar wciągania do snów innych osób młodej Alice (Lisa Wilcox). Za pomocą jej nieświadomego umysłu, Krueger zaspokaja swój głód i zabija najbliższych przyjaciół dziewczyny i jej brata.

Format : Matroska
File size : 3.68 GiB
Duration : 1h 33mn
Overall bit rate : 5 654 Kbps
Video
ID : 1
Format : AVC
Format/Info : Advanced Video Codec
Format profile : High@L3.1
Duration : 1h 33mn
Bit rate : 5 206 Kbps
Width : 1 280 pixels
Height : 720 pixels
Display aspect ratio : 16:9
Frame rate : 23.976 fps
Stream size : 3.32 GiB (90%)
Writing library : x264 core 118 r2085 8a62835
Language : English
Audio
Format : AC-3
Duration : 1h 33mn
Bit rate mode : Constant
Bit rate : 448 Kbps
Channel(s) : 6 channels
Stream size : 299 MiB (8%)
Title : Crash-Polski


Uwaga! Linki nie zakodowane tylko dla zarejestrowanych użytkowników!

Nie masz konta? Zarejestruj się za darmo!
----------------
Links are not encoded only for registered users only! Plese login or register!







Koszmar z ulicy Wiązów 5: Dziecko snów / Nightmare on the Elm Street 5: The Dream Child (1989) PL.720p.BluRay.x264-Crash / POLSKI LEKTOR

Koszmar z ulicy Wiązów 1-8 / A Nightmare on Elm Street 1-8 (1984-2010)  PL.720p.BluRay.x264-Crash / POLSKI LEKTOR +mHD

http://www.filmweb.pl/film/Koszmar+z+ulicy+Wi%C4%85z%C3%B3w+5+Dziecko+sn%C3%B3w-1989-31327

czas trwania: 1 godz. 29 min.
gatunek: Horror
premiera: 11 sierpnia 1989 (świat) 1989-08-11
reżyseria: Stephen Hopkins
scenariusz: Leslie Bohem

Alice, jedyna ocalała z koszmaru, ku swemu przerażeniu odkrywa, że Freddy znów ją nawiedza w snach.... Dziewczynę dręczą okropne sny, ma wizje dotyczące przeszłości, związanej z narodzinami, a przede wszystkim poczęciem Freddy'ego. Dzieje się tak dlatego, że Alice oczekuje dziecka. Dziecka, którym chce zawładnąć Freddy. Wykorzystać je do ponownego przyjścia na świat. Alice musi stawić czoła nie tylko koszmarom, ale i swemu nie narodzonemu dziecku....

Koszmar z ulicy Wiązów 1-8 / A Nightmare on Elm Street 1-8 (1984-2010)  PL.720p.BluRay.x264-Crash / POLSKI LEKTOR +mHD
Koszmar z ulicy Wiązów 1-8 / A Nightmare on Elm Street 1-8 (1984-2010)  PL.720p.BluRay.x264-Crash / POLSKI LEKTOR +mHD

Format : Matroska
File size : 3.71 GiB
Duration : 1h 29mn
Overall bit rate : 5 920 Kbps
Encoded date : UTC 2011-10-25 00:51:11
Video
Format : AVC
Format/Info : Advanced Video Codec
Format profile : High@L3.1
Duration : 1h 29mn
Bit rate : 5 472 Kbps
Width : 1 280 pixels
Height : 720 pixels
Display aspect ratio : 16:9
Frame rate : 23.976 fps
Stream size : 3.35 GiB (90%)
Writing library : x264 core 118 r2085 8a62835
Language : English
Audio
Format : AC-3
Duration : 1h 29mn
Bit rate mode : Constant
Bit rate : 448 Kbps
Channel(s) : 6 channels
Stream size : 287 MiB (8%)
Title : Crash-Polski


Uwaga! Linki nie zakodowane tylko dla zarejestrowanych użytkowników!

Nie masz konta? Zarejestruj się za darmo!
----------------
Links are not encoded only for registered users only! Plese login or register!







Freddy nie żyje: Koniec koszmaru / Freddy's Dead: The Final Nightmare (1991) PL.720p.BluRay.x264-Crash / POLSKI LEKTOR

Koszmar z ulicy Wiązów 1-8 / A Nightmare on Elm Street 1-8 (1984-2010)  PL.720p.BluRay.x264-Crash / POLSKI LEKTOR +mHD

http://www.filmweb.pl/film/Freddy+nie+%C5%BCyje+Koniec+koszmaru-1991-6856

czas trwania: 1 godz. 36 min.
gatunek: Horror
premiera: 5 września 1991 (świat) 1991-09-05
reżyseria: Rachel Talalay
scenariusz: Michael De Luca

Ko?cowa część "koszmarnej" serii z udziałem Freddy'ego Kruegera. Tym razem przeciwko Kruegerowi (Robert Englund) staje jego córka, późniejsza doktor Maggie Burroughs (Lisa Zane). W filmie ukazana jest cała historia Freddy'ego począwszy od jego szkolnych lat aż do spalenia go przez mieszka?ców Springwood, lecz fabuła filmu opowiada o czwórce nastolatków i doktor Maggie przypadkowo dostających się do Springwood.

Koszmar z ulicy Wiązów 1-8 / A Nightmare on Elm Street 1-8 (1984-2010)  PL.720p.BluRay.x264-Crash / POLSKI LEKTOR +mHD
Koszmar z ulicy Wiązów 1-8 / A Nightmare on Elm Street 1-8 (1984-2010)  PL.720p.BluRay.x264-Crash / POLSKI LEKTOR +mHD

Format : Matroska
File size : 3.71 GiB
Duration : 1h 29mn
Overall bit rate : 5 949 Kbps
Writing library : libebml v0.7.7 + libmatroska v0.8.1
Video
Format/Info : Advanced Video Codec
Format profile : High@L3.1
Duration : 1h 29mn
Bit rate : 5 506 Kbps
Width : 1 280 pixels
Height : 720 pixels
Display aspect ratio : 16:9
Frame rate : 23.976 fps
Stream size : 3.36 GiB (90%)
Writing library : x264 core 118 r2085 8a62835
Language : English
Audio
Format : AC-3
Duration : 1h 29mn
Bit rate mode : Constant
Bit rate : 448 Kbps
Channel(s) : 6 channels
Stream size : 286 MiB (8%)
Title : Crash-Polski


Uwaga! Linki nie zakodowane tylko dla zarejestrowanych użytkowników!

Nie masz konta? Zarejestruj się za darmo!
----------------
Links are not encoded only for registered users only! Plese login or register!









Nowy koszmar Wesa Cravena / New Nightmare (1994) PL.720p.BluRay.x264-Crash / POLSKI LEKTOR

Koszmar z ulicy Wiązów 1-8 / A Nightmare on Elm Street 1-8 (1984-2010)  PL.720p.BluRay.x264-Crash / POLSKI LEKTOR +mHD

http://www.filmweb.pl/film/Nowy+koszmar+Wesa+Cravena-1994-8223

czas trwania: 1 godz. 52 min.
gatunek: Horror
premiera: 16 czerwca 1995 (Polska) 1995-06-16 9 września 1994 (świat) 1994-09-09
reżyseria: Wes Craven
scenariusz: Wes Craven

Aktorka Heather Langenkamp zostaje zaproszona do telewizji z okazji 10 rocznicy powstania pierwszego filmu o Freddym Kruegerze (Robert Englund). Podczas projekcji potwór opuszcza ekran i przenosi się do realnego świata, a jego kolejną ofiarą staje się syn artystki - mały Dylan (Miko Hughes). Chłopiec trafia do szpitala z objawami silnej dziecięcej schizofrenii. Tymczasem Freddy zabija jego opiekunkę i usiłuje całkowicie zawładnąć duszą malca. Zrozpaczona Heather szuka pomocy u swoich filmowych
kolegów. Ostatecznie jednak musi sama stoczyć walkę z upiorem, by ratować swego syna.... Siódmy film z cyklu opowieści o przerażającym mordercy, Freddym Kruegerze

Koszmar z ulicy Wiązów 1-8 / A Nightmare on Elm Street 1-8 (1984-2010)  PL.720p.BluRay.x264-Crash / POLSKI LEKTOR +mHD
Koszmar z ulicy Wiązów 1-8 / A Nightmare on Elm Street 1-8 (1984-2010)  PL.720p.BluRay.x264-Crash / POLSKI LEKTOR +mHD

Format : Matroska
File size : 3.54 GiB
Duration : 1h 52mn
Overall bit rate : 4 518 Kbps
Video
Format/Info : Advanced Video Codec
Format profile : High@L3.1
Duration : 1h 52mn
Bit rate : 4 073 Kbps
Width : 1 280 pixels
Height : 720 pixels
Display aspect ratio : 16:9
Frame rate : 23.976 fps
Stream size : 3.12 GiB (88%)
Writing library : x264 core 118 r2085 8a62835
Language : English
Audio
Format : AC-3
Duration : 1h 52mn
Bit rate mode : Constant
Bit rate : 448 Kbps
Channel(s) : 6 channels
Stream size : 360 MiB (10%)
Title : Crash-Polski


Uwaga! Linki nie zakodowane tylko dla zarejestrowanych użytkowników!

Nie masz konta? Zarejestruj się za darmo!
----------------
Links are not encoded only for registered users only! Plese login or register!





Koszmar z ulicy Wiązów / A Nightmare on Elm Street (2010) PL.BluRay.720p.AC3.x264-Destiny / POLSKI LEKTOR

Koszmar z ulicy Wiązów 1-8 / A Nightmare on Elm Street 1-8 (1984-2010)  PL.720p.BluRay.x264-Crash / POLSKI LEKTOR +mHD

http://www.filmweb.pl/film/Koszmar+z+ulicy+Wi%C4%85z%C3%B3w-2010-472396

czas trwania: 1 godz. 35 min.
gatunek: Horror
premiera: 16 lipca 2010 (Polska) 2010-07-16 27 kwietnia 2010 (świat) 2010-04-27
reżyseria: Samuel Bayer
scenariusz: Eric Heisserer, Wesley Strick

Grupa nastolatków jest prześladowana przez Freddy’ego Kruegera - potwornie oszpeconego zabójcę, który poluje na swoje ofiary podczas snu. Dopóki młodzi ludzie czuwają, mogą siebie ochronić. Gdy zasną - nie ma dla nich ratunku… Remake filmowej wersji z 1984 roku.

Format : Matroska
File size : 3.79 GiB
Duration : 1h 35mn
Overall bit rate : 5 679 Kbps
Video
Format/Info : Advanced Video Codec
Format profile : High@L4.1
Duration : 1h 35mn
Bit rate : 5 039 Kbps
Width : 1 280 pixels
Height : 528 pixels
Display aspect ratio : 2.40:1
Frame rate : 23.976 fps
Stream size : 3.29 GiB (87%)
Writing library : x264 core 105 r1724 b02df7b
Language : English
Audio
Format : AC-3
Duration : 1h 35mn
Bit rate mode : Constant
Bit rate : 640 Kbps
Channel(s) : 6 channels
Stream size : 437 MiB (11%)
Title : Destiny-Polski


Uwaga! Linki nie zakodowane tylko dla zarejestrowanych użytkowników!

Nie masz konta? Zarejestruj się za darmo!
----------------
Links are not encoded only for registered users only! Plese login or register!





Koszmar z ulicy Wiązów / A Nightmare on Elm Street (2010) PL.BluRay.m720p.AC3.x264-Destiny / POLSKI LEKTOR

Format : Matroska
File size : 2.18 GiB
Duration : 1h 35mn
Overall bit rate : 3 271 Kbps
Video
Format/Info : Advanced Video Codec
Format profile : High@L4.0
Duration : 1h 35mn
Bit rate : 2 649 Kbps
Width : 1 280 pixels
Height : 528 pixels
Display aspect ratio : 2.40:1
Frame rate : 23.976 fps
Bits/(Pixel*Frame) : 0.163
Stream size : 1.71 GiB (78%)
Writing library : x264 core 105 r1724 b02df7b
Audio
Format : AC-3
Duration : 1h 35mn
Bit rate mode : Constant
Bit rate : 640 Kbps
Channel(s) : 6 channels
Stream size : 437 MiB (20%)
Title : Destiny=Polski

Uwaga! Linki nie zakodowane tylko dla zarejestrowanych użytkowników!

Nie masz konta? Zarejestruj się za darmo!
----------------
Links are not encoded only for registered users only! Plese login or register!


[/CENTER]

Użytkownik VIP

CrashRedVIP

#1 | Dodany: 27 Październik 2011 16:14

ok
Użytkownik VIP

jaku1978VIP

#2 | Dodany: 27 Październik 2011 16:17

ok zapomniales napisac source HDBT.eu LOL
Użytkownik VIP

arek111Użytkownik

#3 | Dodany: 27 Październik 2011 19:52

to się brawo nazywa wstawka 1 klasa
Użytkownik VIP

sploitUżytkownik

#4 | Dodany: 28 Październik 2011 22:10

1 klasa to by byla jakby tp dodał, a nie zakladałwątek i nie było w nim tego co w tytule;)
Streamfreak
Użytkownik VIP

TunakUżytkownik

#5 | Dodany: 29 Październik 2011 12:06

Cytat: jaku1978
ok zapomniales napisac source HDBT.eu LOL

Nie ma to jak przypisywać czyjaś prace.. nic nie zrobiłeś oprócz ściągnięcia z hdbt tego filmu i wrzuceniu tutaj
Użytkownik VIP

CrashRedVIP

#6 | Dodany: 29 Październik 2011 13:40

Tunak,
nawet nie skomentuje, nie wiesz a sie udzielasz akurat tego z hdbt nie ściągałem, a wróżką nie jestem skad bylo audio.
Użytkownik VIP

MIECIO222Użytkownik

#7 | Dodany: 29 Październik 2011 17:10

ogólnie retro w dobrym stylu ale proszę jeśli się da 1920-1080 z dobrym dźwiękiem wszystkie części chętnie zassam
Użytkownik VIP

grand_daddyUżytkownik

#8 | Dodany: 29 Październik 2011 23:08

nie z hdbt ale od Bobra na pewno z ......
Użytkownik VIP

CrashRedVIP

#9 | Dodany: 30 Październik 2011 00:31

grand_daddy,
nastepny, a ty myslisz ze bobr skad bierze ehhh....
Użytkownik VIP

exilia6Użytkownik

#10 | Dodany: 16 Listopad 2011 18:39

thx
Użytkownik VIP

XPIHbUżytkownik

#11 | Dodany: 24 Listopad 2011 22:13

git robota thx czekam na resztę
Użytkownik VIP

mario_dnbUżytkownik

#12 | Dodany: 26 Listopad 2011 10:02

dawac wiecej
Użytkownik VIP

MIECIO222Użytkownik

#13 | Dodany: 26 Listopad 2011 18:43

mistrzowie jest opcja aby zapodać wszystkie części w 1920-1080 ????????
Użytkownik VIP

FifjorUżytkownik

#14 | Dodany: 26 Listopad 2011 21:57

ok
Użytkownik VIP

ptaszek69Użytkownik

#15 | Dodany: 27 Listopad 2011 06:43

Jest ok -Ale przyłączam się do prośby MIECIA222-jeśli to możliwe,to przecież klasyka dla niektórych thx
Użytkownik VIP

pietrasstbUżytkownik

#16 | Dodany: 13 Grudzień 2011 12:05

KOSZMAR Z ULICY WIĄZÓW KOLEKCJA CZ?śCI 1-8 ENG

Kompresja RAR 10%danych naprawczych,pliki 1Gb


http://www.fileserve.com/file/jD5ZgNC
http://www.fileserve.com/file/bWXN9nU
http://www.fileserve.com/file/8XmHsWr
http://www.fileserve.com/file/zvXeQ5M
http://www.fileserve.com/file/eeWgQC4
http://www.fileserve.com/file/d82veaw
http://www.fileserve.com/file/4xBB3tb
Użytkownik VIP

XPIHbUżytkownik

#17 | Dodany: 13 Grudzień 2011 19:39

Nowy koszmar Wesa Cravena / New Nightmare (1994) PL.720p.BluRay.x264-Crash / POLSKI LEKTOR z fileserve pliki są uszkodzne
Użytkownik VIP

CrashRedVIP

#18 | Dodany: 13 Grudzień 2011 22:29

XPIHb,
sprawdzilem rozpakowalo sie bez problemu, w razie problemow radze sciagnac bledne party z filesonic i musi dzialac.
Użytkownik VIP

torpedomaxUżytkownik

#19 | Dodany: 18 Grudzień 2011 15:02

Koszmar z ulicy Wiązów 1-8 / A Nightmare on Elm Street 1-8 (1984-2010) PL.BluRay.m720p.AC3.x264-DX Lektor PL

Uwaga! Linki nie zakodowane tylko dla zarejestrowanych użytkowników!

Nie masz konta? Zarejestruj się za darmo!
----------------
Links are not encoded only for registered users only! Plese login or register!


Koszmar z ulicy Wiązów 1-8 / A Nightmare on Elm Street 1-8 (1984-2010) BluRay m1080p DualAudio AC3 x264-DX PL/ENG Napisy PL

Uwaga! Linki nie zakodowane tylko dla zarejestrowanych użytkowników!

Nie masz konta? Zarejestruj się za darmo!
----------------
Links are not encoded only for registered users only! Plese login or register!

Resident Evil ( 2002 - 2012 ) Kolekcja Multi.BluRay.1080p.x264.DTS-HDMA.DTS.AC3-DX Lektor i Napisy PL

http://www.exsite.pl/filmy_video_movies/filmy-hd-dvd5-dvd9/789890-kolekcja-resident-evil-2002-2012-bluray1080pduallaudiodtsac3x264-dx-engpl-napisy-pl.html

Gwiezdne wojny / Star Wars (1977-2005) THE.COMPLETE.SAGA.MULTi.HQ.1080p.BluRay.x264.DTS-HDMA.DTS.AC3-DX
LEKTOR, DUBBING i NAPISY PL


http://wklej.to/iE7tg
Użytkownik VIP

JahoodUżytkownik

#20 | Dodany: 4 Październik 2012 19:08

Koszmar z ulicy Wiązów 4 (1988) 1080p

RELEASE DATE.....: 2012.09.13
RUNTIME..........: ~01:35:00
AUDIO LANGUAGE...: English | Polish Lector
GENRE............: Horror | Mystery | Thriller

Video............: ~12.5 Mbps x264
Resolution.......: 1920 x 1080 | 1920 x 800
Frame Rate.......: 23.976 fps
Audio............: 1510 Kbps 5.1 DTS English | 448 Kbps 5.1 AC-3 Polish Lector
Subtitles........: Polish
Video Size.......: ~11.22 GiB
Source...........: 1080p Bluray CUSTOM PL VC-1 DTS-HD MA 5.1-HDBT & 1080p BluRay CEE VC1 DTSHD MA - EiMi [THX]

http://www10.zippyshare.com/v/20293104/file.html
http://www9.zippyshare.com/v/29610550/file.html
http://www55.zippyshare.com/v/70404208/file.html
http://www43.zippyshare.com/v/75427230/file.html
http://www30.zippyshare.com/v/91544157/file.html
http://www7.zippyshare.com/v/19836378/file.html
http://www42.zippyshare.com/v/85828699/file.html
http://www24.zippyshare.com/v/21997599/file.html
http://www40.zippyshare.com/v/59712906/file.html
http://www22.zippyshare.com/v/71008400/file.html
http://www42.zippyshare.com/v/90793311/file.html
http://www33.zippyshare.com/v/7674414/file.html
http://www22.zippyshare.com/v/2179380/file.html
http://www9.zippyshare.com/v/91489952/file.html
http://www56.zippyshare.com/v/79023820/file.html
http://www8.zippyshare.com/v/3658576/file.html
http://www64.zippyshare.com/v/67157092/file.html
http://www30.zippyshare.com/v/59021850/file.html
http://www2.zippyshare.com/v/468776/file.html
http://www36.zippyshare.com/v/26230821/file.html
http://www2.zippyshare.com/v/81716462/file.html
http://www38.zippyshare.com/v/92374044/file.html
http://www5.zippyshare.com/v/64123749/file.html
http://www14.zippyshare.com/v/63393343/file.html
http://www41.zippyshare.com/v/88685921/file.html
http://www28.zippyshare.com/v/36994395/file.html
http://www37.zippyshare.com/v/83427141/file.html
http://www18.zippyshare.com/v/89931584/file.html
http://www63.zippyshare.com/v/31277966/file.html
http://www29.zippyshare.com/v/64845320/file.html
http://www6.zippyshare.com/v/78242684/file.html
http://www11.zippyshare.com/v/72265048/file.html
http://www39.zippyshare.com/v/62928406/file.html
http://www63.zippyshare.com/v/34492684/file.html
http://www9.zippyshare.com/v/5898406/file.html
http://www22.zippyshare.com/v/22425055/file.html
http://www36.zippyshare.com/v/55095842/file.html
http://www38.zippyshare.com/v/5564091/file.html
http://www18.zippyshare.com/v/88605840/file.html
http://www59.zippyshare.com/v/10440920/file.html
http://www43.zippyshare.com/v/96486214/file.html
http://www11.zippyshare.com/v/5292608/file.html
http://www43.zippyshare.com/v/64925424/file.html
http://www12.zippyshare.com/v/95309154/file.html
http://www33.zippyshare.com/v/54493292/file.html
http://www5.zippyshare.com/v/74374785/file.html
http://www23.zippyshare.com/v/43468798/file.html
http://www31.zippyshare.com/v/27631168/file.html
http://www32.zippyshare.com/v/2910789/file.html
http://www20.zippyshare.com/v/37140965/file.html
http://www19.zippyshare.com/v/3635231/file.html
http://www20.zippyshare.com/v/73959459/file.html
http://www23.zippyshare.com/v/98164612/file.html
http://www42.zippyshare.com/v/10849719/file.html
http://www19.zippyshare.com/v/28768125/file.html
http://www18.zippyshare.com/v/16554586/file.html
http://www11.zippyshare.com/v/51468991/file.html
http://www35.zippyshare.com/v/82452129/file.html
http://www28.zippyshare.com/v/53169664/file.html
http://www12.zippyshare.com/v/41229632/file.html
http://www23.zippyshare.com/v/36016900/file.html
http://www5.zippyshare.com/v/29905534/file.html
http://www36.zippyshare.com/v/89710480/file.html
http://www65.zippyshare.com/v/77199162/file.html
http://www23.zippyshare.com/v/76331777/file.html

Informacje

Jeżeli chcesz skomentować artykuł musisz być zarejestrowany na stronie.