EXSite.pl - Portal ze wszystkim Mamy tutaj wszystko

NIE MASZ JESZCZE KONTA? ZAREJESTRUJ SIĘ ZA DARMO!   
Przypomnij hasło X

30 dni mroku / 30 Days of Night (2007) PL.720p.Bluray.x264-Crash / POLSKI LEKTOR + mHD

Dodał: CrashRed 20 Listopad 2011 15:56


30 dni mroku / 30 Days of Night (2007) PL.720p.Bluray.x264-Crash / POLSKI LEKTOR

30 dni mroku / 30 Days of Night (2007) PL.720p.Bluray.x264-Crash / POLSKI LEKTOR + mHD

30 dni mroku / 30 Days of Night (2007) PL.720p.Bluray.x264-Crash / POLSKI LEKTOR + mHD
http://www.filmweb.pl/film/30+dni+mroku-2007-206479

czas trwania: 1 godz. 53 min.
gatunek: Horror
premiera: 30 kwietnia 2009 (Polska) 2009-04-30 16 października 2007 (świat) 2007-10-16
reżyseria: David Slade
scenariusz: Stuart Beattie, Brian Nelson (więcej...)

Akcja filmu dzieje się w odciętym od świata mieście na Alasce, które każdego roku, gdy sło?ce znika za horyzontem, pogrąża się na miesiąc w mroku. Kiedy blakną ostatnie promienie sło?ca miasto atakują krwiożercze wampiry opętane niszczycielskim szałem. Na ich drodze staje jednak małże?stwo nieustraszonych szeryfów. Tyko tych dwoje może ocalić miasto przed zagładą.


30 dni mroku / 30 Days of Night (2007) PL.720p.Bluray.x264-Crash / POLSKI LEKTOR + mHD
30 dni mroku / 30 Days of Night (2007) PL.720p.Bluray.x264-Crash / POLSKI LEKTOR + mHD

Format : Matroska
File size : 4.22 GiB
Duration : 1h 53mn
Overall bit rate : 5 344 Kbps
Video
ID : 1
Format : AVC
Format/Info : Advanced Video Codec
Format profile : High@L5.1
Duration : 1h 53mn
Bit rate : 4 893 Kbps
Width : 1 280 pixels
Height : 528 pixels
Display aspect ratio : 2.40:1
Frame rate : 23.976 fps
Stream size : 3.78 GiB (90%)
Title : Crash-Polski
Writing library : x264 core 58 svn-736M
Language : Polish
Audio
Format : AC-3
Duration : 1h 53mn
Bit rate mode : Constant
Bit rate : 448 Kbps
Channel(s) : 6 channels
Stream size : 362 MiB (8%)



30 dni mroku / 30 Days of Night (2007) PL.720p.Bluray.x264-Crash / POLSKI LEKTOR + mHD
Uwaga! Linki nie zakodowane tylko dla zarejestrowanych użytkowników!

Nie masz konta? Zarejestruj się za darmo!
----------------
Links are not encoded only for registered users only! Plese login or register!






30 dni mroku / 30 Days of Night (2007) PL.m720p.Bluray.x264-Crash / POLSKI LEKTOR

Format : Matroska
File size : 2.24 GiB
Duration : 1h 53mn
Overall bit rate : 2 837 Kbps
Video
ID : 1
Format : AVC
Format/Info : Advanced Video Codec
Format profile : High@L3.1
Duration : 1h 53mn
Bit rate : 2 332 Kbps
Nominal bit rate : 2 450 Kbps
Width : 1 280 pixels
Height : 544 pixels
Display aspect ratio : 2.35:1
Stream size : 1.84 GiB (82%)
Writing library : x264 core 93 r1542 5b86182
Audio
Format : AC-3
Duration : 1h 53mn
Bit rate mode : Constant
Bit rate : 448 Kbps
Channel(s) : 6 channels
Stream size : 362 MiB (16%)
Title : Crash-Polski
Language : Polish



Uwaga! Linki nie zakodowane tylko dla zarejestrowanych użytkowników!

Nie masz konta? Zarejestruj się za darmo!
----------------
Links are not encoded only for registered users only! Plese login or register!











30 dni mroku: Czas ciemności / 30 Days of Night: Dark Days (2010) PL.720p.BluRay.x264-TWiZTED.Crash / POLSKI LEKTOR

30 dni mroku / 30 Days of Night (2007) PL.720p.Bluray.x264-Crash / POLSKI LEKTOR + mHD

http://www.filmweb.pl/film/30+dni+mroku+Czas+ciemno%C5%9Bci-2010-526730

czas trwania: 1 godz. 32 min.
gatunek: Horror
premiera: wrzesie? 2010 (świat) 2010-09
reżyseria: Ben Ketai
scenariusz: Ben Ketai, Steve Niles

Po przetrwaniu wydarze? w miasteczku Barrow na Alasce, Stella Olemaun przeprowadza się do Los Angeles, gdzie celowo ściąga na siebie uwagę miejscowej społeczności wampirów, aby stawić im czoło i pomścić śmierć swojego męża, Ebena.

30 dni mroku / 30 Days of Night (2007) PL.720p.Bluray.x264-Crash / POLSKI LEKTOR + mHD
30 dni mroku / 30 Days of Night (2007) PL.720p.Bluray.x264-Crash / POLSKI LEKTOR + mHD

Format : Matroska
File size : 3.63 GiB
Duration : 1h 32mn
Overall bit rate : 5 615 Kbps
Video
ID : 1
Format : AVC
Format/Info : Advanced Video Codec
Format profile : High@L3.1
Duration : 1h 32mn
Bit rate : 5 247 Kbps
Width : 1 280 pixels
Height : 688 pixels
Display aspect ratio : 1.860
Frame rate : 23.976 fps
Stream size : 3.31 GiB (91%)
Title : twiz-darkdays-720p
Writing library : x264 core 105 r1724 b02df7b
Language : English
Audio
Format : AC-3
Duration : 1h 32mn
Bit rate mode : Constant
Bit rate : 384 Kbps
Channel(s) : 6 channels
Stream size : 254 MiB (7%)
Title : Crash - AC3-5.1-PL
Language : Polish


Uwaga! Linki nie zakodowane tylko dla zarejestrowanych użytkowników!

Nie masz konta? Zarejestruj się za darmo!
----------------
Links are not encoded only for registered users only! Plese login or register!








30 dni mroku: Czas ciemności / 30 Days of Night: Dark Days (2010) PL.m720p.BluRay.x264-Crash / POLSKI LEKTOR

Format : Matroska
File size : 2.14 GiB
Duration : 1h 32mn
Overall bit rate : 3 321 Kbps
Video
ID : 1
Format : AVC
Format profile : High@L4.1
Duration : 1h 32mn
Bit rate : 3 000 Kbps
Width : 1 280 pixels
Height : 688 pixels
Display aspect ratio : 1.860
Frame rate mode : Variable
Frame rate : 23.976 fps
Bits/(Pixel*Frame) : 0.142
Stream size : 1.85 GiB (86%)
Writing library : x264 core 93 r1542 5b86182
Audio

Format : AC-3
Duration : 1h 32mn
Bit rate mode : Constant
Bit rate : 384 Kbps
Channel(s) : 6 channels
Stream size : 254 MiB (12%)
Title : Crash - AC3-5.1-PL
Language : Polish


Uwaga! Linki nie zakodowane tylko dla zarejestrowanych użytkowników!

Nie masz konta? Zarejestruj się za darmo!
----------------
Links are not encoded only for registered users only! Plese login or register!











Użytkownik VIP

CrashRedVIP

#1 | Dodany: 29 Październik 2011 16:15

ok
Użytkownik VIP

norania0Użytkownik

#2 | Dodany: 29 Październik 2011 17:46

dzięki
Użytkownik VIP

kashankaUżytkownik

#3 | Dodany: 2 Listopad 2011 13:32

Czesc kiedy bedzie m720p?
pozdrawiam
Użytkownik VIP

kashankaUżytkownik

#4 | Dodany: 5 Listopad 2011 17:11

wielkie dzieki

Informacje

Jeżeli chcesz skomentować artykuł musisz być zarejestrowany na stronie.