EXSite.pl - Portal ze wszystkim Mamy tutaj wszystko

NIE MASZ JESZCZE KONTA? ZAREJESTRUJ SIĘ ZA DARMO!   
Przypomnij hasło X

Ocean's Eleven 1-3 / Ocean's Eleven 1-3 (2001-2007) PL.1080p.BluRay.AC3.x264-Crash / POLSKI LEKTOR +mHD

Dodał: CrashRed 27 Listopad 2011 17:36


Ocean's Eleven: Ryzykowna gra / Ocean's Eleven (2001) PL.1080p.BluRay.AC3.x264-Crash / POLSKI LEKTOR

Ocean's Eleven 1-3 / Ocean's Eleven 1-3 (2001-2007) PL.1080p.BluRay.AC3.x264-Crash / POLSKI LEKTOR +mHD

Ocean's Eleven 1-3 / Ocean's Eleven 1-3 (2001-2007) PL.1080p.BluRay.AC3.x264-Crash / POLSKI LEKTOR +mHD
http://www.filmweb.pl/film/Ocean%27s+Eleven+Ryzykowna+gra-2001-8263

czas trwania: 1 godz. 56 min.
gatunek: Komedia kryminalna
premiera: 5 kwietnia 2002 (Polska) 2002-04-05 5 grudnia 2001 (świat) 2001-12-05
reżyseria: Steven Soderbergh
scenariusz: Ted Griffin

Danny Ocean (George Clooney) to urodzony złodziej. Właśnie wyszedł z więzienia, co jednak nie przeszkadza mu w planowaniu kolejnego, i to nie banalnego skoku. Ma zamiar okraść jednocześnie trzy największe kasyna w Las Vegas należące do Terryego Benedicta (Andy Garcia), bezwzględnego cwaniaka, który podrywa byłą żonę Dannyego - Tess (Julia Roberts). Skok ten wymaga zespołu najlepszych fachowców i Ocean właśnie takich ludzi znajduje. Plan jest ryzykowny - kasyna Bendicta są doskonale chronione, ale cała jedenastka jest gotowa podjąć wyzwanie, gdyż liczą na łup w wysokości co najmniej 150 milionów dolarów.



Ocean's Eleven 1-3 / Ocean's Eleven 1-3 (2001-2007) PL.1080p.BluRay.AC3.x264-Crash / POLSKI LEKTOR +mHD
Ocean's Eleven 1-3 / Ocean's Eleven 1-3 (2001-2007) PL.1080p.BluRay.AC3.x264-Crash / POLSKI LEKTOR +mHD

Format : Matroska
File size : 12.2 GiB
Duration : 1h 56mn
Overall bit rate : 15.0 Mbps
Video
Format/Info : Advanced Video Codec
Format profile : High@L4.1
Duration : 1h 56mn
Bit rate : 14.3 Mbps
Width : 1 920 pixels
Height : 800 pixels
Display aspect ratio : 2.40:1
Frame rate : 23.976 fps
Stream size : 11.4 GiB (94%)
Title : x264
Writing library : x264 core 105 r1732 2b04482
Language : English
Audio
Format : AC-3
Duration : 1h 56mn
Bit rate mode : Constant
Bit rate : 640 Kbps
Channel(s) : 6 channels
Stream size : 534 MiB (4%)
Title : Crash-Polski



Ocean's Eleven 1-3 / Ocean's Eleven 1-3 (2001-2007) PL.1080p.BluRay.AC3.x264-Crash / POLSKI LEKTOR +mHD
Uwaga! Linki nie zakodowane tylko dla zarejestrowanych użytkowników!

Nie masz konta? Zarejestruj się za darmo!
----------------
Links are not encoded only for registered users only! Plese login or register!



Ocean's Eleven: Ryzykowna gra / Ocean's Eleven (2001) PL.m-1080p.BluRay.AC3.x264-Crash / POLSKI LEKTOR

Format : Matroska
File size : 4.59 GiB
Duration : 1h 56mn
Overall bit rate : 5 641 Kbps
Video
ID : 1
Format/Info : Advanced Video Codec
Format profile : High@L4.0
Duration : 1h 56mn
Bit rate : 5 000 Kbps
Width : 1 920 pixels
Height : 800 pixels
Display aspect ratio : 2.40:1
Frame rate : 23.976 fps
Stream size : 3.98 GiB (87%)
Title : EliteCoder
Writing library : x264 core 115 r1995 c1e60b9
Language : English
Audio
Format : AC-3
Duration : 1h 56mn
Bit rate mode : Constant
Bit rate : 640 Kbps
Channel(s) : 6 channels
Stream size : 534 MiB (11%)
Title : Crash-Polski


Uwaga! Linki nie zakodowane tylko dla zarejestrowanych użytkowników!

Nie masz konta? Zarejestruj się za darmo!
----------------
Links are not encoded only for registered users only! Plese login or register!

















Ocean's Twelve: Dogrywka / Ocean's Twelve (2004) PL.1080p.BluRay.x264-Crash / POLSKI LEKTOR

Ocean's Eleven 1-3 / Ocean's Eleven 1-3 (2001-2007) PL.1080p.BluRay.AC3.x264-Crash / POLSKI LEKTOR +mHD

http://www.filmweb.pl/Oceans.12.Dogrywka

czas trwania: 2 godz. 5 min.
gatunek: Komedia kryminalna
premiera: 14 stycznia 2005 (Polska) 2005-01-14 8 grudnia 2004 (świat) 2004-12-08
reżyseria: Steven Soderbergh
scenariusz: George Nolfi

Minęły trzy lata odkąd Danny Ocean (George Clooney) i jego ludzie na czele z karcianym asem Rusty Ryanem (Brad Pitt), kieszonkowcem Linusem Caldwellem (Matt Damon), specjalistą od materiałów wybuchowych Basherem Tarrem (Don Cheadle) i rozpruwaczem sejfów Frankiem Cattonem (Bernie Mac) dokonali jednego z najbardziej udanych i lukratywnych skoków w historii, pozbawiając bezwzględnego właściciela kasyn, Terry'ego Benedicta (Andy Garcia) każdego centa, przechowywanego w skarbcu jego kasyna. Po podziale 160 milionów, każdy członek ekipy Oceana próbował wieść proste, legalne życie... Co, ku zmartwieniu żony Danny'ego, Tess (Julia Roberts), okazało się niezbyt proste. Nagle ktoś łamie Zasadę Numer Jeden i wydaje bandę Benedictowi. Ko?czy się ich spokojne życie. Benedict chce odzyskać swoje 160 milionów plus odsetki albo... Poza tym, o czym szybko przekona się ekipa Danny'ego, Benedict nie jest jedyną wpływową osobą na świecie, która szuka Jedenastki Oceana..

Ocean's Eleven 1-3 / Ocean's Eleven 1-3 (2001-2007) PL.1080p.BluRay.AC3.x264-Crash / POLSKI LEKTOR +mHD
Ocean's Eleven 1-3 / Ocean's Eleven 1-3 (2001-2007) PL.1080p.BluRay.AC3.x264-Crash / POLSKI LEKTOR +mHD

Format : Matroska
File size : 7.95 GiB
Duration : 2h 5mn
Overall bit rate : 9 082 Kbps
Video
ID : 1
Format : AVC
Format/Info : Advanced Video Codec
Format profile : High@L4.1
Bit rate mode : Variable
Bit rate : 8 436 Kbps
Maximum bit rate : 38.0 Mbps
Width : 1 920 pixels
Height : 800 pixels
Display aspect ratio : 2.40:1
Frame rate : 23.976 fps
Stream size : 7.23 GiB (91%)
Writing library : x264 core 61 r967M 869d5e4
Language : English
Audio
ID : 2
Format : AC-3
Duration : 2h 5mn
Bit rate mode : Constant
Bit rate : 640 Kbps
Channel(s) : 6 channels
Stream size : 574 MiB (7%)
Title : Crash-Polski


Uwaga! Linki nie zakodowane tylko dla zarejestrowanych użytkowników!

Nie masz konta? Zarejestruj się za darmo!
----------------
Links are not encoded only for registered users only! Plese login or register!











Ocean's Twelve: Dogrywka / Ocean's Twelve (2004) PL.m-1080p.BluRay.AC3.x264-Crash / POLSKI LEKTOR

Format : Matroska
File size : 4.94 GiB
Duration : 2h 5mn
Overall bit rate : 5 642 Kbps
Video
Format/Info : Advanced Video Codec
Format profile : High@L4.0
Duration : 2h 5mn
Bit rate : 5 000 Kbps
Width : 1 920 pixels
Height : 800 pixels
Display aspect ratio : 2.40:1
Frame rate : 23.976 fps
Stream size : 4.28 GiB (87%)
Title : EliteCoder @ HD-BB.org
Writing library : x264 core 115 r1995 c1e60b9
Language : English
Audio
Format : AC-3
Duration : 2h 5mn
Bit rate mode : Constant
Bit rate : 640 Kbps
Channel(s) : 6 channels
Stream size : 574 MiB (11%)
Title : Crash-Polski


Uwaga! Linki nie zakodowane tylko dla zarejestrowanych użytkowników!

Nie masz konta? Zarejestruj się za darmo!
----------------
Links are not encoded only for registered users only! Plese login or register!











Ocean's 13 / Ocean's Thirteen (2007) PL.1080p.BluRay.AC3.x264-Crash / POLSKI LEKTOR

Ocean's Eleven 1-3 / Ocean's Eleven 1-3 (2001-2007) PL.1080p.BluRay.AC3.x264-Crash / POLSKI LEKTOR +mHD

http://www.filmweb.pl/Oceans.13

czas trwania: 2 godz. 2 min.
gatunek: Komedia kryminalna
premiera: 8 czerwca 2007 (Polska) 2007-06-08 24 maja 2007 (świat) 2007-05-24
reżyseria: Steven Soderbergh
scenariusz: David Levien, Brian Koppelman

Danny Ocean (George Clooney) i jego gang mogą mieć tylko jeden powód, by przeprowadzić najbardziej ambitny i ryzykowny plan obrabowania kasyna - aby bronić jednego spośród siebie. Kiedy bezwzględny właściciel domu gry Willy Bank (Al Pacino) oszukuje jednego z jedenastki Oceana - Reubena Tishkoffa (Elliott Gould) - Danny i jego grupa ponownie łączą siły, by przekonać się, czy zdołają "rozbić bank".

Ocean's Eleven 1-3 / Ocean's Eleven 1-3 (2001-2007) PL.1080p.BluRay.AC3.x264-Crash / POLSKI LEKTOR +mHD
Ocean's Eleven 1-3 / Ocean's Eleven 1-3 (2001-2007) PL.1080p.BluRay.AC3.x264-Crash / POLSKI LEKTOR +mHD

Format : Matroska
File size : 13.0 GiB
Duration : 2h 2mn
Overall bit rate : 15.3 Mbps
Video
ID : 1
Format/Info : Advanced Video Codec
Format profile : High@L4.1
Duration : 2h 2mn
Bit rate : 14.6 Mbps
Width : 1 920 pixels
Height : 802 pixels
Display aspect ratio : 2.35:1
Frame rate : 23.976 fps
Stream size : 12.2 GiB (94%)
Title : x264
Writing library : x264 core 105 r1732 2b04482
Language : English
Audio
ID : 2
Format : AC-3
Duration : 2h 2mn
Bit rate mode : Constant
Bit rate : 640 Kbps
Channel(s) : 6 channels
Stream size : 559 MiB (4%)
Title : Crash+Polski


Uwaga! Linki nie zakodowane tylko dla zarejestrowanych użytkowników!

Nie masz konta? Zarejestruj się za darmo!
----------------
Links are not encoded only for registered users only! Plese login or register!





Ocean's 13 / Ocean's Thirteen (2007) PL.m-1080p.BluRay.AC3.x264-Crash / POLSKI LEKTOR

Format : Matroska
File size : 4.81 GiB
Duration : 2h 2mn
Overall bit rate : 5 640 Kbps
Format/Info : Advanced Video Codec
Format profile : High@L4.0
Duration : 2h 2mn
Bit rate : 5 000 Kbps
Width : 1 920 pixels
Height : 804 pixels
Display aspect ratio : 2.35:1
Frame rate : 23.976 fps
Stream size : 4.17 GiB (87%)
Title : EliteCoder @ HD-BB.org
Writing library : x264 core 115 r1995 c1e60b9
Language : English
Audio
Format : AC-3
Duration : 2h 2mn
Bit rate mode : Constant
Bit rate : 640 Kbps
Channel(s) : 6 channels
Stream size : 559 MiB (11%)
Title : Crash-Polski


Uwaga! Linki nie zakodowane tylko dla zarejestrowanych użytkowników!

Nie masz konta? Zarejestruj się za darmo!
----------------
Links are not encoded only for registered users only! Plese login or register!



Użytkownik VIP

CrashRedVIP

#1 | Dodany: 29 Październik 2011 16:45

ok
Użytkownik VIP

jaku1978VIP

#2 | Dodany: 29 Październik 2011 16:48

wink

proponuje podawac src rela skad sie bierze Video bo o tym mowa w regualminie....
Użytkownik VIP

Jarcy123Użytkownik

#3 | Dodany: 30 Październik 2011 22:34

dual audio może by tak do pełni szczęścia?
Użytkownik VIP

logopedałUżytkownik

#4 | Dodany: 5 Listopad 2011 22:18

Nie polecam tej wstawki - 12Gb na pierwszą część sporo przesadzone. Pobrałem z innej wstawki ten sam film o wadze 3Gb i nie było widać różnicy.
Użytkownik VIP

CrashRedVIP

#5 | Dodany: 6 Listopad 2011 20:14

logopedał,
bo jestes ze tak powiem "znawca" w temacie ktory nie wie co to film HD , zapewne ogladasz na monitorku 17 calowym albo laptopie i mowi ze nie widzi różnicy, pozatym skad wiesz ze taka sama jakosc rozumiem ze pobrales 12 gb a potem pobrales 3 gb od tak sobie.

Ps. pozatym co powiedz ludza ścigającym filmy full hd w pelnym blu ray po 20-40 gb ?
Użytkownik VIP

sploitUżytkownik

#6 | Dodany: 12 Listopad 2011 18:48

Pewnie lamus zassał 720p:P Ale roznica miedzy dvd a bluray jest dla mnie taka jak miedzy avi a dvd, nie zasysam juz nic, poza 1080, a 1080 o tej długości trwania nie będzie miało 3 gb, no ale spoko, sąteż tacy co zasysają rmvb 300 mb i uważają, że "kopia dobra" - buahhaa;]
Streamfreak
Użytkownik VIP

danki26Użytkownik

#7 | Dodany: 29 Listopad 2011 00:05

Palant nie umie przeroboc 1080p

Informacje

Jeżeli chcesz skomentować artykuł musisz być zarejestrowany na stronie.