EXSite.pl - Portal ze wszystkim Mamy tutaj wszystko

NIE MASZ JESZCZE KONTA? ZAREJESTRUJ SIĘ ZA DARMO!   
Przypomnij hasło X

Hulk 1-2 / The Hulk 1-2 (2003-2008) PL.Bluray.1080p.x264-Crash / POLSKI LEKTOR

Dodał: CrashRed 5 Listopad 2011 16:25


Hulk / The Hulk (2003) PL.Bluray.1080p.x264-Crash / POLSKI LEKTOR

Hulk 1-2 / The Hulk 1-2 (2003-2008) PL.Bluray.1080p.x264-Crash / POLSKI LEKTOR

Hulk 1-2 / The Hulk 1-2 (2003-2008) PL.Bluray.1080p.x264-Crash / POLSKI LEKTOR
http://www.filmweb.pl/Hulk

czas trwania: 2 godz. 18 min.
gatunek: Akcja, Sci-Fi
premiera: 18 lipca 2003 (Polska) 2003-07-18 17 czerwca 2003 (świat) 2003-06-17
reżyseria: Ang Lee
scenariusz: Michael France, James Schamus (więcej...)

Naukowiec Bruce Banner ma trudności z panowaniem nad swoimi emocjami w momentach stresu i złości. W skutek niedopatrzenia przyjmuje śmiertelną dla człowieka dawkę promieniowania gamma. Wkrótce zaczyna odczuwać nie do ko?ca sprecyzowaną obecność kogoś w swoim wnętrzu, niebezpiecznego, ale zarazem przez swoją mroczność pociągającego... Gwałtowne zmiany zachodzące w jego życiu obserwuje jego była dziewczyna i współpracowniczka naukowa, Betty Ross.


Hulk 1-2 / The Hulk 1-2 (2003-2008) PL.Bluray.1080p.x264-Crash / POLSKI LEKTOR
Hulk 1-2 / The Hulk 1-2 (2003-2008) PL.Bluray.1080p.x264-Crash / POLSKI LEKTOR

Format : Matroska
File size : 10.0 GiB
Duration : 2h 18mn
Overall bit rate : 10.4 Mbps
Video
ID : 1
Format : AVC
Format profile : High@L4.1
Duration : 2h 18mn
Bit rate : 9 755 Kbps
Width : 1 920 pixels
Height : 1 040 pixels
Display aspect ratio : 16:9
Frame rate : 23.976 fps
Stream size : 9.22 GiB (92%)
Title : Hulk.2003
Writing library : x264 core 67 r1153M 7b6ce6a
Language : English
Audio
Format : AC-3
Duration : 2h 18mn
Bit rate mode : Constant
Bit rate : 640 Kbps
Channel(s) : 6 channels
Stream size : 633 MiB (6%)
Title : Crash-Polski



Hulk 1-2 / The Hulk 1-2 (2003-2008) PL.Bluray.1080p.x264-Crash / POLSKI LEKTOR
Uwaga! Linki nie zakodowane tylko dla zarejestrowanych użytkowników!

Nie masz konta? Zarejestruj się za darmo!
----------------
Links are not encoded only for registered users only! Plese login or register!





Incredible Hulk / The Incredible Hulk (2008) PL.BluRay.1080p.x264.-Crash / POLSKI LEKTOR

Hulk 1-2 / The Hulk 1-2 (2003-2008) PL.Bluray.1080p.x264-Crash / POLSKI LEKTOR

http://www.filmweb.pl/film/Incredible+Hulk-2008-261650

czas trwania: 1 godz. 52 min.
gatunek: Akcja, Sci-Fi
premiera: 13 czerwca 2008 (Polska) 2008-06-13 6 czerwca 2008 (świat) 2008-06-06
reżyseria: Louis Leterrier
scenariusz: Zak Penn

"Incredible Hulk" to rewelacyjna ekranizacja kultowej opowieści o jednym z najpopularniejszych superbohaterów. Od czasu przypadkowego napromieniowania naukowiec Bruce Banner (Edward Norton) szuka lekarstwa, które pozwoli mu uwolnić się od niezwykłego stanu, w jaki wpada pod wpływem silnego stresu. W takich chwilach Banner zmienia się bowiem w olbrzymiego zielonego mutanta - Hulka. Naukowiec jest na najlepszej drodze do znalezienia remedium, jednak wszystko może zostać utracone, kiedy pojawia się tajemnicze monstrum, które siłą przewyższa Hulka. W dodatku zielonego olbrzyma usiłuje schwytać armia, by wykorzystać jego moc do własnych celów. Banner musi dokonać ostatecznego wyboru - czy pozostać zwykłym naukowcem, czy raczej uwolnić niezmierzoną siłę, która tkwi w jego wnętrzu.

Hulk 1-2 / The Hulk 1-2 (2003-2008) PL.Bluray.1080p.x264-Crash / POLSKI LEKTOR
Hulk 1-2 / The Hulk 1-2 (2003-2008) PL.Bluray.1080p.x264-Crash / POLSKI LEKTOR

Format : Matroska
File size : 10.1 GiB
Duration : 1h 52mn
Overall bit rate : 12.8 Mbps
Video
ID : 1
Format : AVC
Format/Info : Advanced Video Codec
Format profile : High@L4.1
Duration : 1h 52mn
Bit rate : 12.2 Mbps
Width : 1 920 pixels
Height : 816 pixels
Display aspect ratio : 2.35:1
Frame rate : 23.976 fps
Stream size : 9.58 GiB (95%)
Title : x264 crf
Writing library : x264 core 65 r998M 6768543
Audio
ID : 2
Format : AC-3
Duration : 1h 52mn
Bit rate mode : Constant
Bit rate : 384 Kbps
Channel(s) : 6 channels
Stream size : 309 MiB (3%)
Title : Crash-Polski


Uwaga! Linki nie zakodowane tylko dla zarejestrowanych użytkowników!

Nie masz konta? Zarejestruj się za darmo!
----------------
Links are not encoded only for registered users only! Plese login or register!



Użytkownik VIP

CrashRedVIP

#1 | Dodany: 29 Październik 2011 17:10

ok
Użytkownik VIP

rockyvssnakeUżytkownik

#2 | Dodany: 31 Październik 2011 17:26

Hulk (2003) PL Bluray 1080p x264 Lektor PL

Format: Matroska, Overall bit rate: 10.4 Mbps, Total Size: 11.15 GB
Video: x264 core, AVC, Bit rate: 9 755 Kbps, 1920*1040 pixels, 16:9, 23.976 fps, 8 bits
Audio: Polski lektor, AC-3, 640 Kbps, 6 channels, 48.0 KHz, 16 bits


można pobierać zamiennie z serwerów | Dane naprawcze 10 %
Uwaga! Linki nie zakodowane tylko dla zarejestrowanych użytkowników!

Nie masz konta? Zarejestruj się za darmo!
----------------
Links are not encoded only for registered users only! Plese login or register!


password: barretta54
Użytkownik VIP

gmachUżytkownik

#3 | Dodany: 5 Listopad 2011 17:53

ok
Użytkownik VIP

czwartarzeszaUżytkownik

#4 | Dodany: 25 Listopad 2011 22:01

taniec Super wstawka. Długo szukałem pierwszej części. Dzięki 5
Użytkownik VIP

faraon3021Użytkownik

#5 | Dodany: 2 Grudzień 2011 10:14

super wstawka dzieki, swietna jakosc swietnego fimu ok
Użytkownik VIP

kartaczVIP Uploader

#6 | Dodany: 29 Październik 2012 18:28

Hulk / The Hulk (2003)


RIP INFO:
The.Hulk.2003.PL.720p.BluRay.x264-LLO

Video............: 1280 x 694, AVC, 6.513 kbps
Audio............: AC3, 640 kbps, 6 kanałów
Czas trwania.....: 138 min
Język............: Polski Lektor
Rozmiar..........: 7.05 GB
Rodzaj kompresji.: .rar
Zawartość uploadu: plik .mkv
Dane naprawcze...: Brak


W partach, można pobierać naprzemiennie:

Uwaga! Linki nie zakodowane tylko dla zarejestrowanych użytkowników!

Nie masz konta? Zarejestruj się za darmo!
----------------
Links are not encoded only for registered users only! Plese login or register!


Uwaga! Linki nie zakodowane tylko dla zarejestrowanych użytkowników!

Nie masz konta? Zarejestruj się za darmo!
----------------
Links are not encoded only for registered users only! Plese login or register!


Incredible Hulk / The Incredible Hulk (2008)


RIP INFO:
The.Incredible.Hulk.2008.PL.720p.BluRay.x264-LLO

Video............: 1280 x 544, AVC, 6.639 kbps
Audio............: AC3, 384 kbps, 6 kanałów
Czas trwania.....: 112 min
Język............: Polski Lektor
Rozmiar..........: 5.62 GB
Rodzaj kompresji.: .rar
Zawartość uploadu: plik .mkv
Dane naprawcze...: Brak


W partach, można pobierać naprzemiennie:

Uwaga! Linki nie zakodowane tylko dla zarejestrowanych użytkowników!

Nie masz konta? Zarejestruj się za darmo!
----------------
Links are not encoded only for registered users only! Plese login or register!


Uwaga! Linki nie zakodowane tylko dla zarejestrowanych użytkowników!

Nie masz konta? Zarejestruj się za darmo!
----------------
Links are not encoded only for registered users only! Plese login or register!

Informacje

Jeżeli chcesz skomentować artykuł musisz być zarejestrowany na stronie.