EXSite.pl - Portal ze wszystkim Mamy tutaj wszystko

NIE MASZ JESZCZE KONTA? ZAREJESTRUJ SIĘ ZA DARMO!   
Przypomnij hasło X

Szybcy i martwi / Quick and the Dead (1995) PL.720p.BluRay.x264-Destiny / POLSKI LEKTOR +mHD

Dodał: CrashRed 5 Listopad 2011 15:20


Szybcy i martwi / Quick and the Dead (1995) PL.720p.BluRay.x264-Destiny / POLSKI LEKTOR +mHD

Szybcy i martwi / Quick and the Dead (1995) PL.720p.BluRay.x264-Destiny / POLSKI LEKTOR +mHD

Szybcy i martwi / Quick and the Dead (1995) PL.720p.BluRay.x264-Destiny / POLSKI LEKTOR +mHD
http://www.filmweb.pl/film/Szybcy+i+martwi-1995-9987

czas trwania: 1 godz. 47 min.
gatunek: Western
premiera: 11 sierpnia 1995 (Polska) 1995-08-11 10 lutego 1995 (świat) 1995-02-10
reżyseria: Sam Raimi
scenariusz: Simon Moore

Do małego miasteczka na Dzikim Zachodzie, rządzonego silną ręką przez Heroda przyjeżdża tajemnicza Ellen. Z nikim nie rozmawia, czasem tylko patrzy dzikim wzrokiem, od którego przeszywa dreszcz. Kid, rzekomy syn Heroda, wiecznie otoczony wianuszkiem dziewcząt, bardzo interesuje się tajemniczą nieznajomą. Wkrótce Herod przyprowadza Corta, swego dawnego kompana, obecnie księdza. Między duchownym a Ellen od razu iskrzy. Rozpoczyna się turniej rewolwerowców. Cała czwórka bierze w nim udział, a zwycięzca może być tylko jeden. Zostanie nim najszybszy strzelec. Reszta będzie martwa...



Szybcy i martwi / Quick and the Dead (1995) PL.720p.BluRay.x264-Destiny / POLSKI LEKTOR +mHD
Szybcy i martwi / Quick and the Dead (1995) PL.720p.BluRay.x264-Destiny / POLSKI LEKTOR +mHD

Format : Matroska
File size : 7.25 GiB
Duration : 1h 47mn
Overall bit rate : 9 637 Kbps
Movie name : The Quick and the Dead (1995)
Video
ID : 1
Format/Info : Advanced Video Codec
Format profile : High@L4.1
Duration : 1h 47mn
Bit rate : 8 994 Kbps
Width : 1 280 pixels
Height : 692 pixels
Display aspect ratio : 1.850
Frame rate : 23.976 fps
Stream size : 6.63 GiB (91%)
Writing library : x264 core 75 r1251M e553a4c
Language : English
Audio
Format : AC-3
Duration : 1h 47mn
Bit rate mode : Constant
Bit rate : 640 Kbps
Channel(s) : 6 channels
Stream size : 493 MiB (7%)
Title : Destiny-Polski



Szybcy i martwi / Quick and the Dead (1995) PL.720p.BluRay.x264-Destiny / POLSKI LEKTOR +mHD
Uwaga! Linki nie zakodowane tylko dla zarejestrowanych użytkowników!

Nie masz konta? Zarejestruj się za darmo!
----------------
Links are not encoded only for registered users only! Plese login or register!










Szybcy i martwi / Quick and the Dead (1995) PL.m720p.BluRay.x264-Destiny / POLSKI LEKTOR

Format                           : Matroska
File size                        : 2.26 GiB
Duration                         : 1h 47mn
Overall bit rate                 : 3 003 Kbps
Video
ID                               : 1
Format                           : AVC
Format/Info                      : Advanced Video Codec
Format profile                   : High@L4.1
Duration                         : 1h 47mn
Bit rate                         : 2 360 Kbps
Width                            : 1 280 pixels
Height                           : 688 pixels
Display aspect ratio             : 1.850
Original display aspect ratio    : 1.860
Frame rate                       : 23.976 fps
Stream size                      : 1.73 GiB (77%)
Writing library                  : x264 core 78 r1309M 4d77de8
Language                         : English
Audio
Format                           : AC-3
Duration                         : 1h 47mn
Bit rate mode                    : Constant
Bit rate                         : 640 Kbps
Channel(s)                       : 6 channels
Stream size                      : 493 MiB (21%)
Title                            : Destiny-Polski



Uwaga! Linki nie zakodowane tylko dla zarejestrowanych użytkowników!

Nie masz konta? Zarejestruj się za darmo!
----------------
Links are not encoded only for registered users only! Plese login or register!



Użytkownik VIP

CrashRedVIP

#1 | Dodany: 29 Październik 2011 17:30

kolejny klasyk, polecam fajne lekkie kino
Użytkownik VIP

dyskoteka1987Trial Uploader

#2 | Dodany: 29 Październik 2011 22:21

Mówisz ... to zabieram się za ściąganie 10/10 winked
Użytkownik VIP

freexmanUżytkownik

#3 | Dodany: 20 Styczeń 2012 02:06

W wersji mHD błąd w part 6 , niezależnie skąd ściągnięte.
Z 4 i 2 też były problemy ,ale kolejnych śiągnięciach z innych serwerow juz nie ma sygnałow o błędzie .
Gdzie źródło problemu ?

Informacje

Jeżeli chcesz skomentować artykuł musisz być zarejestrowany na stronie.