EXSite.pl - Portal ze wszystkim Mamy tutaj wszystko

NIE MASZ JESZCZE KONTA? ZAREJESTRUJ SIĘ ZA DARMO!   
Przypomnij hasło X

Coś / The Thing (1982) PL.720p.BluRay.x264.DXVA-Crash / POLSKI LEKTOR +mHD

Dodał: CrashRed 5 Listopad 2011 15:37


Coś / The Thing (1982) PL.720p.BluRay.x264.DXVA-Crash / POLSKI LEKTOR

Coś / The Thing (1982) PL.720p.BluRay.x264.DXVA-Crash / POLSKI LEKTOR +mHD

Coś / The Thing (1982) PL.720p.BluRay.x264.DXVA-Crash / POLSKI LEKTOR +mHD
http://www.filmweb.pl/film/Co%C5%9B-1982-4713

czas trwania: 1 godz. 49 min.
gatunek: Horror, Sci-Fi
premiera: 25 czerwca 1982 (świat) 1982-06-25
reżyseria: John Carpenter
scenariusz: Bill Lancaster

Akcja toczy się zimą 1982 r. w odciętej od świata bazie naukowej na Antarktydzie. śmierć sieje tam Obcy - przybysz z nieznanej planety, którego pojazd rozbił się niegdyś na Ziemi i który właśnie teraz zbudzony został z lodowego snu. Ma on umiejętność nieustannej zmiany kształtów. Ponieważ egzystuje wyłącznie we wnętrzu żywego organizmu próbuje upodobnić się do swego nosiciela. Zaczyna od psa, ko?czy na człowieku.


Coś / The Thing (1982) PL.720p.BluRay.x264.DXVA-Crash / POLSKI LEKTOR +mHD
Coś / The Thing (1982) PL.720p.BluRay.x264.DXVA-Crash / POLSKI LEKTOR +mHD

Format : Matroska
File size : 3.39 GiB
Duration : 1h 48mn
Overall bit rate : 4 463 Kbps
Video
ID : 1
Format : AVC
Format/Info : Advanced Video Codec
Format profile : High@L4.1
Duration : 1h 48mn
Bit rate : 4 243 Kbps
Width : 1 280 pixels
Height : 544 pixels
Display aspect ratio : 2.35:1
Frame rate : 23.976 fps
Stream size : 3.15 GiB (93%)
Writing library : x264 core 98 r1649 c54c47d
Language : English
Audio
Format : AC-3
Duration : 1h 48mn
Bit rate mode : Constant
Bit rate : 224 Kbps
Channel(s) : 2 channels
Stream size : 174 MiB (5%)
Title : Crash-Polski



Coś / The Thing (1982) PL.720p.BluRay.x264.DXVA-Crash / POLSKI LEKTOR +mHD
Uwaga! Linki nie zakodowane tylko dla zarejestrowanych użytkowników!

Nie masz konta? Zarejestruj się za darmo!
----------------
Links are not encoded only for registered users only! Plese login or register!





Coś / The Thing (1982) PL.m720p.BluRay.x264.DXVA-Crash / POLSKI LEKTOR

Format : Matroska
File size : 2.39 GiB
Duration : 1h 48mn
Overall bit rate : 3 153 Kbps
Video
Format : AVC
Format profile : High@L4.1
Duration : 1h 48mn
Bit rate : 3 000 Kbps
Width : 1 280 pixels
Height : 544 pixels
Display aspect ratio : 2.35:1
Frame rate mode : Variable
Frame rate : 23.976 fps
Stream size : 2.18 GiB (91%)
Title : Crash-Polski
Writing library : x264 core 93 r1542 5b86182
Audio
Format : AC-3
Duration : 1h 48mn
Bit rate mode : Constant
Bit rate : 224 Kbps
Channel(s) : 2 channels
Delay relative to video : -42ms
Stream size : 174 MiB (7%)

Uwaga! Linki nie zakodowane tylko dla zarejestrowanych użytkowników!

Nie masz konta? Zarejestruj się za darmo!
----------------
Links are not encoded only for registered users only! Plese login or register!



Użytkownik VIP

CrashRedVIP

#1 | Dodany: 29 Październik 2011 18:14

ok
Użytkownik VIP

jaku1978VIP

#2 | Dodany: 29 Październik 2011 18:20

lol
Użytkownik VIP

max23Użytkownik

#3 | Dodany: 29 Październik 2011 18:33

laughing
God tapped me on the head and said you are a weightlifter motherfuker
Użytkownik VIP

dyskoteka1987Trial Uploader

#4 | Dodany: 29 Październik 2011 22:17

love
Użytkownik VIP

torpedomaxUżytkownik

#5 | Dodany: 30 Październik 2011 09:31

Coś / The Thing (1982) BluRay m-720p AC3 x264-DX Lektor PL

General



Uwaga! Linki nie zakodowane tylko dla zarejestrowanych użytkowników!

Nie masz konta? Zarejestruj się za darmo!
----------------
Links are not encoded only for registered users only! Plese login or register!


Resident Evil ( 2002 - 2012 ) Kolekcja Multi.BluRay.1080p.x264.DTS-HDMA.DTS.AC3-DX Lektor i Napisy PL

http://www.exsite.pl/filmy_video_movies/filmy-hd-dvd5-dvd9/789890-kolekcja-resident-evil-2002-2012-bluray1080pduallaudiodtsac3x264-dx-engpl-napisy-pl.html

Gwiezdne wojny / Star Wars (1977-2005) THE.COMPLETE.SAGA.MULTi.HQ.1080p.BluRay.x264.DTS-HDMA.DTS.AC3-DX
LEKTOR, DUBBING i NAPISY PL


http://wklej.to/iE7tg
Użytkownik VIP

pawel86ckUżytkownik

#6 | Dodany: 30 Październik 2011 11:29

Kurde no gościu... akurat przyszła mi myśl minutę temu, kurcze nie mam w swojej kolekcji the thing, wchodzę na exsite i proszę... Pobieramy..
BTW-Jeżeli to możliwe to czy można by w przyszłości wstawiać większe te screeny ?
Użytkownik VIP

CrashRedVIP

#7 | Dodany: 30 Październik 2011 14:31

pawel86ck,
z tymi screnami to powiem ze sie juz przyzwyczaiłem dawac pomniejszone bo na rożnych forach sa rozne zasady wielkosci , w sumie jakosc zawsze bedzie dobra, a scren raczej poglądowy jak wygląda jaki aktor i dla przypomnienia.
Użytkownik VIP

Zwi3rzuUżytkownik

#8 | Dodany: 5 Listopad 2011 18:45

na 1080 nie ma co liczyc?

Informacje

Jeżeli chcesz skomentować artykuł musisz być zarejestrowany na stronie.