EXSite.pl - Portal ze wszystkim Mamy tutaj wszystko

NIE MASZ JESZCZE KONTA? ZAREJESTRUJ SIĘ ZA DARMO!   
Przypomnij hasło X

Ryzykanci / Double Team (1997) PL.720p.HDTV.x264-Crash / POLSKI LEKTOR +mHD

Dodał: CrashRed 5 Listopad 2011 14:54


Ryzykanci / Double Team (1997) PL.720p.HDTV.x264-Crash / POLSKI LEKTOR +mHD

Ryzykanci / Double Team (1997) PL.720p.HDTV.x264-Crash / POLSKI LEKTOR +mHD

Ryzykanci / Double Team (1997) PL.720p.HDTV.x264-Crash / POLSKI LEKTOR +mHD
http://www.filmweb.pl/film/Ryzykanci-1997-599

czas trwania: 1 godz. 33 min.
gatunek: Thriller, Akcja
premiera: 20 czerwca 1997 (Polska) 1997-06-20 4 kwietnia 1997 (świat) 1997-04-04
reżyseria: Hark Tsui
scenariusz: Don Jakoby, Paul Mones

światowej klasy specjalista od zwalczania terrorystów Jack Quinn marzy o wycofaniu się z zawodu i spokojnym życiu u boku ukochanej żony i mającego się wkrótce narodzić syna. Sprawy przybierają jednak zły obrót, gdy Quinn zawodzi w swej ostatniej misji, z której wychodzi cało jeden z najgroźniejszych terrorystów świata, Stavros. Quinn w mgnieniu oka traci wszystko i trafia do Kolonii, ściśle strzeżonego miejsca, gdzie przetrzymuje się podobnych mu agentów, zbyt niebezpiecznych, by mogli żyć na wolności, zbyt cennych, by ich uśmiercono. Stavros poprzysięga zemstę na żonie Quinna i bohater musi stawić mu czoła wspomagany jedynie przez ekscentrycznego handlarza broni Yaza...


Ryzykanci / Double Team (1997) PL.720p.HDTV.x264-Crash / POLSKI LEKTOR +mHD
Ryzykanci / Double Team (1997) PL.720p.HDTV.x264-Crash / POLSKI LEKTOR +mHD

Format : Matroska
File size : 4.38 GiB
Duration : 1h 33mn
Overall bit rate : 6 734 Kbps
Video
Format/Info : Advanced Video Codec
Format profile : High@L4.1
Duration : 1h 33mn
Bit rate : 6 350 Kbps
Width : 1 280 pixels
Height : 720 pixels
Display aspect ratio : 16:9
Frame rate : 23.976 fps
Stream size : 4.04 GiB (92%)
Writing library : x264 core 102 r1666 d058f37
Language : English
Audio
ID : 2
Format : AC-3
Duration : 1h 33mn
Bit rate mode : Constant
Bit rate : 384 Kbps
Channel(s) : 6 channels
Stream size : 256 MiB (6%)
Title : Crash-Polski



Ryzykanci / Double Team (1997) PL.720p.HDTV.x264-Crash / POLSKI LEKTOR +mHD
Uwaga! Linki nie zakodowane tylko dla zarejestrowanych użytkowników!

Nie masz konta? Zarejestruj się za darmo!
----------------
Links are not encoded only for registered users only! Plese login or register!







Ryzykanci / Double Team (1997) PL.m720p.HDTV.x264-Crash / POLSKI LEKTOR

Format : Matroska
File size : 1.92 GiB
Duration : 1h 33mn
Overall bit rate : 2 958 Kbps
Video
ID : 1
Format : AVC
Format/Info : Advanced Video Codec
Format profile : High@L3.1
Duration : 1h 33mn
Bit rate : 2 600 Kbps
Width : 1 280 pixels
Height : 720 pixels
Display aspect ratio : 16:9
Frame rate mode : Variable
Frame rate : 23.976 fps
Stream size : 1.63 GiB (85%)
Writing library : x264 core 107
Language : English
Audio
ID : 2
Format : AC-3
Duration : 1h 33mn
Bit rate mode : Constant
Bit rate : 384 Kbps
Channel(s) : 6 channels
Stream size : 256 MiB (13%)
Title : Crash-Poklski


Uwaga! Linki nie zakodowane tylko dla zarejestrowanych użytkowników!

Nie masz konta? Zarejestruj się za darmo!
----------------
Links are not encoded only for registered users only! Plese login or register!




Użytkownik VIP

CrashRedVIP

#1 | Dodany: 30 Październik 2011 15:40

ok
Użytkownik VIP

dyskoteka1987Trial Uploader

#2 | Dodany: 31 Październik 2011 14:32

thx

Informacje

Jeżeli chcesz skomentować artykuł musisz być zarejestrowany na stronie.