EXSite.pl - Portal ze wszystkim Mamy tutaj wszystko

NIE MASZ JESZCZE KONTA? ZAREJESTRUJ SIĘ ZA DARMO!   
Przypomnij hasło X

Nieugięty Luke / Cool Hand Luke (1967) PL.1080p.BluRay.x264-Crash / POLSKI LEKTOR +mHD

Dodał: CrashRed 6 Listopad 2011 14:36


Nieugięty Luke / Cool Hand Luke (1967) PL.1080p.BluRay.x264-Crash / POLSKI LEKTOR +mHD

Nieugięty Luke / Cool Hand Luke (1967) PL.1080p.BluRay.x264-Crash / POLSKI LEKTOR +mHD

Nieugięty Luke / Cool Hand Luke (1967) PL.1080p.BluRay.x264-Crash / POLSKI LEKTOR +mHD
http://www.filmweb.pl/film/Nieugi%C4%99ty+Luke-1967-4679

czas trwania: 2 godz. 6 min.
gatunek: Dramat
premiera: 1 listopada 1967 (świat) 1967-11-01
reżyseria: Stuart Rosenberg
scenariusz: Donn Pearce, Frank Pierson

Film nakręcony na podstawie powieści Donna Pearce'a o tym samym tytule. Jego głównym bohaterem jest Lucas Jackson (Paul Newman), bohater wojenny z bogatą listą odznacze?, nazywany przez współwięźniów i strażników "nieugięty Luke", odbywający dwuletnią karę wiezienia za niszczenie parkometrów pod wpływem alkoholu. Dlaczego to robił? Oczywiście w ramach protestu przeciwko systemowi. Swój protest kontynuuje podczas pobytu w więzieniu, poprzez kolejne próby ucieczki przy każdej nadążającej się okazji.


Nieugięty Luke / Cool Hand Luke (1967) PL.1080p.BluRay.x264-Crash / POLSKI LEKTOR +mHD
Nieugięty Luke / Cool Hand Luke (1967) PL.1080p.BluRay.x264-Crash / POLSKI LEKTOR +mHD

Format : Matroska
File size : 7.92 GiB
Duration : 2h 6mn
Overall bit rate : 8 955 Kbps
Movie name : Cool Hand Luke (1967)
Video
Format/Info : Advanced Video Codec
Format profile : High@L4.1
Duration : 2h 6mn
Bit rate : 8 727 Kbps
Width : 1 920 pixels
Height : 800 pixels
Display aspect ratio : 2.40:1
Frame rate : 23.976 fps
Stream size : 7.56 GiB (96%)
Writing library : x264 core 61 r965M 3d2983d
Language : English
Audio
Format : AC-3
Duration : 2h 6mn
Bit rate mode : Constant
Bit rate : 224 Kbps
Channel(s) : 2 channels
Stream size : 203 MiB (3%)
Title : Crash-Polski



Nieugięty Luke / Cool Hand Luke (1967) PL.1080p.BluRay.x264-Crash / POLSKI LEKTOR +mHD
Uwaga! Linki nie zakodowane tylko dla zarejestrowanych użytkowników!

Nie masz konta? Zarejestruj się za darmo!
----------------
Links are not encoded only for registered users only! Plese login or register!









Nieugięty Luke / Cool Hand Luke (1967) PL.m1080p.BluRay.x264-Crash / POLSKI LEKTOR


Format : Matroska
File size : 2.42 GiB
Duration : 2h 6mn
Overall bit rate : 2 735 Kbps
Movie name : Cool Hand Luke (1967)
Video
ID : 1
Format : AVC
Format/Info : Advanced Video Codec
Format profile : High@L3.1
Duration : 2h 6mn
Bit rate : 2 508 Kbps
Width : 1 280 pixels
Height : 534 pixels
Display aspect ratio : 2.35:1
Frame rate : 23.976 fps
Bits/(Pixel*Frame) : 0.153
Stream size : 2.17 GiB (90%)
Writing library : x264 core 115 r1995 c1e60b9
Audio
Format : AC-3
Codec ID : A_AC3
Duration : 2h 6mn
Bit rate mode : Constant
Bit rate : 224 Kbps
Channel(s) : 2 channels
Stream size : 203 MiB (8%)
Title : Crash-Polski


Uwaga! Linki nie zakodowane tylko dla zarejestrowanych użytkowników!

Nie masz konta? Zarejestruj się za darmo!
----------------
Links are not encoded only for registered users only! Plese login or register!





Użytkownik VIP

CrashRedVIP

#1 | Dodany: 30 Październik 2011 16:09

ok
Użytkownik VIP

dyskoteka1987Trial Uploader

#2 | Dodany: 31 Październik 2011 14:30

thx
Użytkownik VIP

CrashRedVIP

#3 | Dodany: 2 Listopad 2011 16:03

mozg69,
sprawdzilem i na filesonic rozpakowuje sie bez problemu, scignij bledne party z filesonic i musi dzialac wyjscia nie ma

Informacje

Jeżeli chcesz skomentować artykuł musisz być zarejestrowany na stronie.