EXSite.pl - Portal ze wszystkim Mamy tutaj wszystko

NIE MASZ JESZCZE KONTA? ZAREJESTRUJ SIĘ ZA DARMO!   
Przypomnij hasło X

Babel (2006) PL.720p.HDDVD.DTS.x264-Destiny / POLSKI LEKTOR +mHD

Dodał: CrashRed 6 Listopad 2011 14:13


Babel (2006) PL.720p.HDDVD.DTS.x264-Destiny / POLSKI LEKTOR +mHD

Babel (2006) PL.720p.HDDVD.DTS.x264-Destiny / POLSKI LEKTOR +mHD

Babel (2006) PL.720p.HDDVD.DTS.x264-Destiny / POLSKI LEKTOR +mHD
http://www.filmweb.pl/Babel

czas trwania: 2 godz. 22 min.
gatunek: Dramat
premiera: 10 listopada 2006 (Polska) 2006-11-10 23 maja 2006 (świat) 2006-05-23
reżyseria: Alejandro Gonz?lez In?rritu
scenariusz: Guillermo Arriaga, Alejandro Gonz?lez In?rritu

Trzy historie ze wspólnym mianownikiem - jednym strzałem z karabinu. Rodzina z Maroka, małże?stwo ameryka?skich turystów, niania z Meksyku, która opiekuje się dziećmi Amerykanów oraz niesłysząca córka znanego biznesmena zostają wciągnięci w serię wypadków, których konsekwencje w zależności od punktu widzenia i od bohatera są tragiczne lub ratują życie. "Wydaje nam się - mówi reżyser - że dzięki zaawansowanym narzędziom komunikacji świat zrobił się mały i dostępny. Mimo to, ludzie nie potrafią
się komunikować. I nie chodzi tu o język. Wbrew pozorom tę barierę łatwo pokonać. Dla mnie problemem są idee, wizje i oczekiwania, które mamy wobec siebie. To one tak naprawdę nas dzielą. Co sprawia, że jesteśmy tacy sami i jednocześnie tak różni. O tym jest ten film


Format : Matroska
File size : 6.77 GiB
Duration : 2h 23mn
Overall bit rate : 6 750 Kbps
Video
ID : 1
Format : AVC
Format/Info : Advanced Video Codec
Format profile : High@L5.1
Duration : 2h 23mn
Bit rate : 6 300 Kbps
Width : 1 280 pixels
Height : 720 pixels
Display aspect ratio : 16:9
Frame rate : 23.976 fps
Stream size : 6.18 GiB (91%)
Title : Babel
Writing library : x264 core 54 svn-627
Language : English
Audio
ID : 2
Format : AC-3
Duration : 2h 23mn
Bit rate mode : Constant
Bit rate : 448 Kbps
Channel(s) : 6 channels
Stream size : 460 MiB (7%)
Title : Destiny-Polski



Babel (2006) PL.720p.HDDVD.DTS.x264-Destiny / POLSKI LEKTOR +mHD
Uwaga! Linki nie zakodowane tylko dla zarejestrowanych użytkowników!

Nie masz konta? Zarejestruj się za darmo!
----------------
Links are not encoded only for registered users only! Plese login or register!






Babel (2006) PL.m-720p.AC3.x264-destiny / POLSKI LEKTOR

Format : Matroska
File size : 3.06 GiB
Duration : 2h 23mn
Overall bit rate : 3 051 Kbps
Video
Format/Info : Advanced Video Codec
Format profile : High@L3.1
Duration : 2h 23mn
Bit rate : 2 600 Kbps
Width : 1 280 pixels
Height : 720 pixels
Display aspect ratio : 16:9
Frame rate : 23.976 fps
Stream size : 2.55 GiB (83%)
Writing library : x264 core 67 r1136M 3f9ba82
Audio
Format : AC-3
Duration : 2h 23mn
Bit rate mode : Constant
Bit rate : 448 Kbps
Channel(s) : 6 channels
Stream size : 460 MiB (15%)
Title : Destiny-Polski


Uwaga! Linki nie zakodowane tylko dla zarejestrowanych użytkowników!

Nie masz konta? Zarejestruj się za darmo!
----------------
Links are not encoded only for registered users only! Plese login or register!



Użytkownik VIP

CrashRedVIP

#1 | Dodany: 30 Październik 2011 16:38

ok

Informacje

Jeżeli chcesz skomentować artykuł musisz być zarejestrowany na stronie.