EXSite.pl - Portal ze wszystkim Mamy tutaj wszystko

NIE MASZ JESZCZE KONTA? ZAREJESTRUJ SIĘ ZA DARMO!   
Przypomnij hasło X

Pan i Pani Kiler / Killers (2010) PL.Bluray.m720p.AC3.x264-DX Lektor PL

Dodał: torpedomax 2 Listopad 2011 17:50


Pan i Pani Kiler / Killers (2010) Bluray m-720p AC3 x264-DX Lektor PL

Pan i Pani Kiler / Killers (2010) PL.Bluray.m720p.AC3.x264-DX Lektor PL

czas trwania: 1 godz. 40 min.
gatunek: Akcja, Komedia rom.
premiera: 4 czerwca 2010 (Polska) 2010-06-04 1 czerwca 2010 (świat) 2010-06-01
reżyseria: Robert Luketic
scenariusz: Ted Griffin, Bob DeRosa

Pewna urlopowiczka spotyka swój ideał mężczyzny, co skutkuje błyskawicznym ślubem tych dwojga. Jednak po powrocie do domu ich idylla zostaje zakłócona, kiedy dowiadują się, że ich sąsiedzi są zabójcami wynajętymi w celu odebrania im życia.

General


Uwaga! Linki nie zakodowane tylko dla zarejestrowanych użytkowników!

Nie masz konta? Zarejestruj się za darmo!
----------------
Links are not encoded only for registered users only! Plese login or register!


Użytkownik VIP

CrashRedVIP

#1 | Dodany: 2 Listopad 2011 18:12

Pan i Pani Kiler / Killers (2010) PL.Bluray.720p.x264-Destiny / POLSKI LEKTOR

Format : Matroska
File size : 3.62 GiB
Duration : 1h 40mn
Overall bit rate : 5 166 Kbps
Video
Format/Info : Advanced Video Codec
Format profile : High@L4.1C
Duration : 1h 40mn
Bit rate : 4 713 Kbps
Width : 1 280 pixels
Height : 544 pixels
Display aspect ratio : 2.35:1
Frame rate : 23.976 fps
Stream size : 3.24 GiB (89%)
Title : Killers.2010.Bluray.720p.DTS.x264-CHD
Writing library : x264 core 84 r1416 fcf70c2
Language : English
Audio
ID : 2
Format : AC-3
Duration : 1h 40mn
Bit rate mode : Constant
Bit rate : 448 Kbps
Channel(s) : 6 channels
Stream size : 322 MiB (9%)
Title : Destiny-Polski



Pan i Pani Kiler / Killers (2010) PL.Bluray.720p.x264-Destiny / POLSKI LEKTOR
Uwaga! Linki nie zakodowane tylko dla zarejestrowanych użytkowników!

Nie masz konta? Zarejestruj się za darmo!
----------------
Links are not encoded only for registered users only! Plese login or register!

Informacje

Jeżeli chcesz skomentować artykuł musisz być zarejestrowany na stronie.