EXSite.pl - Portal ze wszystkim Mamy tutaj wszystko

NIE MASZ JESZCZE KONTA? ZAREJESTRUJ SIĘ ZA DARMO!   
Przypomnij hasło X

Niespokojny / The Restless / Joong-cheon (2006) PL.BluRay.m.720p.AC3.x264-DX Lektor PL

Dodał: torpedomax 2 Listopad 2011 18:22


Niespokojny / The Restless / Joong-cheon (2006) BluRay m-720p AC3 x264-DX Lektor PL

Niespokojny / The Restless / Joong-cheon (2006) PL.BluRay.m.720p.AC3.x264-DX Lektor PL

czas trwania: 1 godz. 45 min.
gatunek: Fantasy, Przygodowy
premiera: 14 października 2006 (świat) 2006-10-14
reżyseria: Cho Chang-Ho, Dong-oh Jo
scenariusz: Dong-oh Jo, Dong-oh Cho

Wielki wojownik Yi Gwak traci swą ukochaną. W wyniku krzyżujących się okoliczności trafia do Międzynieba, gdzie dusze zmarłych czekają 49 dni na powrót na Ziemię. Spotyka tam So-hwa, jednak ta za grosz go nie pamięta. Napotyka też swoich przyjaciół z oddziału, którzy sprzymierzyli się z demonami, których celem jest święty Kamie? przetrzymywany przez ukochaną Yi Gwaka.

General


Niespokojny / The Restless / Joong-cheon (2006) PL.BluRay.m.720p.AC3.x264-DX Lektor PLNiespokojny / The Restless / Joong-cheon (2006) PL.BluRay.m.720p.AC3.x264-DX Lektor PL

Uwaga! Linki nie zakodowane tylko dla zarejestrowanych użytkowników!

Nie masz konta? Zarejestruj się za darmo!
----------------
Links are not encoded only for registered users only! Plese login or register!


Użytkownik VIP

CrashRedVIP

#1 | Dodany: 2 Listopad 2011 18:33

Niespokojny / The Restless / Joong-cheon (2006) PL.720p.BluRay.x264.Destiny / POLSKI LEKTOR

Format : Matroska
File size : 4.37 GiB
Duration : 1h 44mn
Overall bit rate : 5 983 Kbps
Video
ID : 1
Format : AVC
Format/Info : Advanced Video Codec
Format profile : High@L4.1
Duration : 1h 44mn
Bit rate : 5 340 Kbps
Width : 1 280 pixels
Height : 552 pixels
Display aspect ratio : 2.35:1
Frame rate : 23.976 fps
Stream size : 3.82 GiB (87%)
Writing library : x264 core 80 r1376 3feaec2
Language : Korean
Audio
Format : AC-3
Duration : 1h 44mn
Bit rate mode : Constant
Bit rate : 640 Kbps
Channel(s) : 6 channels
Stream size : 479 MiB (11%)
Title : Destiny-Polski



Niespokojny / The Restless / Joong-cheon (2006) PL.720p.BluRay.x264.Destiny / POLSKI LEKTOR

Uwaga! Linki nie zakodowane tylko dla zarejestrowanych użytkowników!

Nie masz konta? Zarejestruj się za darmo!
----------------
Links are not encoded only for registered users only! Plese login or register!

Informacje

Jeżeli chcesz skomentować artykuł musisz być zarejestrowany na stronie.