EXSite.pl - Portal ze wszystkim Mamy tutaj wszystko

NIE MASZ JESZCZE KONTA? ZAREJESTRUJ SIĘ ZA DARMO!   
Przypomnij hasło X

1492: Wyprawa do raju - 1492: Conquest of Paradise(1992) PL.BluRay.m720p.AC3.x264-DX Lektor PL

Dodał: torpedomax 2 Listopad 2011 18:48


1492: Wyprawa do raju - 1492: Conquest of Paradise(1992) BluRay m-720p AC3 x264-DX Lektor PL

1492: Wyprawa do raju - 1492: Conquest of Paradise(1992) PL.BluRay.m720p.AC3.x264-DX Lektor PL

produkcja: Francja, Hiszpania, Wielka Brytania
gatunek: Biograficzny, Przygodowy, Dramat historyczny
premiera: 8 października 1992 świat
reżyseria: Ridley Scott
scenariusz: Roselyne Bosch
zdjęcia: Adrian Biddle
MUZYKA: Rewelacyjna - VANGELIS
Czas trwania: 2h 29 min.

Jeden z najsłynniejszych i niedocenionych filmów Ridleya Scotta, nakręcony dla upamiętnienia 500 rocznicy odkrycia Ameryki przez Krzysztofa Kolumba."1492: Wyprawa do raju" to zrealizowane z ogromnym rozmachem widowisko opowiadające zarówno o samej wyprawie Kolumba do Ameryki, jak i jej bezpośrednich konsekwencjach dla Nowego i Starego świata - a także dla samego odkrywcy.Niewątpliwymi atutami filmu są jego doborowa obsada i wspaniała muzyka.

General


1492: Wyprawa do raju - 1492: Conquest of Paradise(1992) PL.BluRay.m720p.AC3.x264-DX Lektor PL1492: Wyprawa do raju - 1492: Conquest of Paradise(1992) PL.BluRay.m720p.AC3.x264-DX Lektor PL

Uwaga! Linki nie zakodowane tylko dla zarejestrowanych użytkowników!

Nie masz konta? Zarejestruj się za darmo!
----------------
Links are not encoded only for registered users only! Plese login or register!


Użytkownik VIP

torpedomaxUżytkownik

#1 | Dodany: 2 Listopad 2011 18:48

1492: Wyprawa do raju - 1492: Conquest of Paradise(1992)BluRay 720p AC3 x264 Lektor PL

General


Uwaga! Linki nie zakodowane tylko dla zarejestrowanych użytkowników!

Nie masz konta? Zarejestruj się za darmo!
----------------
Links are not encoded only for registered users only! Plese login or register!


Resident Evil ( 2002 - 2012 ) Kolekcja Multi.BluRay.1080p.x264.DTS-HDMA.DTS.AC3-DX Lektor i Napisy PL

http://www.exsite.pl/filmy_video_movies/filmy-hd-dvd5-dvd9/789890-kolekcja-resident-evil-2002-2012-bluray1080pduallaudiodtsac3x264-dx-engpl-napisy-pl.html

Gwiezdne wojny / Star Wars (1977-2005) THE.COMPLETE.SAGA.MULTi.HQ.1080p.BluRay.x264.DTS-HDMA.DTS.AC3-DX
LEKTOR, DUBBING i NAPISY PL


http://wklej.to/iE7tg
Użytkownik VIP

CrashRedVIP

#2 | Dodany: 2 Listopad 2011 22:03

1492: Wyprawa do raju / 1492: Conquest of Paradise (1992) PL.1080p.BluRay.x264-Crash / POLSKI LEKTOR


Format : Matroska
File size : 10.4 GiB
Duration : 2h 29mn
Overall bit rate : 9 928 Kbps
Video
ID : 1
Format : AVC
Format/Info : Advanced Video Codec
Format profile : High@L4.1
Duration : 2h 29mn
Bit rate : 9 548 Kbps
Width : 1 920 pixels
Height : 816 pixels
Display aspect ratio : 2.35:1
Frame rate : 25.000 fps
Stream size : 9.76 GiB (94%)
Writing library : x264 core 107 r1745 4785e8e
Language : English
Audio
Format : AC-3
Duration : 2h 29mn
Bit rate mode : Constant
Bit rate : 384 Kbps
Channel(s) : 2 channels
Stream size : 410 MiB (4%)
Title : Crash-Polski



1492: Wyprawa do raju / 1492: Conquest of Paradise (1992) PL.1080p.BluRay.x264-Crash / POLSKI LEKTOR

Uwaga! Linki nie zakodowane tylko dla zarejestrowanych użytkowników!

Nie masz konta? Zarejestruj się za darmo!
----------------
Links are not encoded only for registered users only! Plese login or register!

Informacje

Jeżeli chcesz skomentować artykuł musisz być zarejestrowany na stronie.