EXSite.pl - Portal ze wszystkim Mamy tutaj wszystko

NIE MASZ JESZCZE KONTA? ZAREJESTRUJ SIĘ ZA DARMO!   
Przypomnij hasło X

Czerwona gorączka / Red Heat (1988) PL.BluRay.m720p.AC3.x264-DX Lektor PL

Dodał: torpedomax 4 Listopad 2011 08:50


Czerwona gorączka / Red Heat (1988) BluRay m-720p AC3 x264-DX Lektor PL

Czerwona gorączka / Red Heat (1988) PL.BluRay.m720p.AC3.x264-DX Lektor PL

reżyseria: Walter Hill
scenariusz: Troy Kennedy-Martin, Walter Hill (więcej...)
premiera: 14 czerwca 1988 (świat)
produkcja: USA
gatunek: Sensacyjny

Iwan Danko (Arnold Schwarzenegger) jest moskiewskim milicjantem zwalczającym handlarzy narkotyków. W jednym z zaułków miasta ma miejsce obława na gang narkotykowy. Dochodzi do strzelaniny, podczas której ginie przyjaciel Iwana. Z pułapki udaje się zbiec szefowi bandy, bezwzględnemu Viktorowi Rostovowi (Ed O'Ross). Danko poprzysięga zemstę i w ślad za groźnym gangsterem udaje się do Chicago. Tu do współpracy zostaje przydzielony mu detektyw ameryka?skiej policji Art Ridzik (James Belushi).

General


Uwaga! Linki nie zakodowane tylko dla zarejestrowanych użytkowników!

Nie masz konta? Zarejestruj się za darmo!
----------------
Links are not encoded only for registered users only! Plese login or register!


Użytkownik VIP

torpedomaxUżytkownik

#1 | Dodany: 4 Listopad 2011 08:51

Czerwona gorączka / Red Heat (1988) BluRay 720p AC3 x264 Lektor PL

General


Uwaga! Linki nie zakodowane tylko dla zarejestrowanych użytkowników!

Nie masz konta? Zarejestruj się za darmo!
----------------
Links are not encoded only for registered users only! Plese login or register!

Resident Evil ( 2002 - 2012 ) Kolekcja Multi.BluRay.1080p.x264.DTS-HDMA.DTS.AC3-DX Lektor i Napisy PL

http://www.exsite.pl/filmy_video_movies/filmy-hd-dvd5-dvd9/789890-kolekcja-resident-evil-2002-2012-bluray1080pduallaudiodtsac3x264-dx-engpl-napisy-pl.html

Gwiezdne wojny / Star Wars (1977-2005) THE.COMPLETE.SAGA.MULTi.HQ.1080p.BluRay.x264.DTS-HDMA.DTS.AC3-DX
LEKTOR, DUBBING i NAPISY PL


http://wklej.to/iE7tg
Użytkownik VIP

CrashRedVIP

#2 | Dodany: 4 Listopad 2011 13:52

Czerwona gorączka / Red Heat (1988) PL.720p.BluRay.x264-Crash POLSKI LEKTOR

Format : Matroska
File size : 5.92 GiB
Duration : 1h 44mn
Overall bit rate : 8 115 Kbps
Video
ID : 1
Format : AVC
Format/Info : Advanced Video Codec
Format profile : High@L4.1
Bit rate : 7 473 Kbps
Width : 1 280 pixels
Height : 720 pixels
Display aspect ratio : 16:9
Frame rate : 23.976 fps
Stream size : 5.33 GiB (90%)
Title : Red Heat (1988)
Writing library : x264 core 80 r1373M 4322f63
Language : English
Audio
Format : AC-3
Duration : 1h 44mn
Bit rate mode : Constant
Bit rate : 640 Kbps
Channel(s) : 6 channels
Stream size : 478 MiB (8%)
Title : Destiny-Polski
Language : Polish




Czerwona gorączka / Red Heat (1988) PL.720p.BluRay.x264-Crash POLSKI LEKTOR
Uwaga! Linki nie zakodowane tylko dla zarejestrowanych użytkowników!

Nie masz konta? Zarejestruj się za darmo!
----------------
Links are not encoded only for registered users only! Plese login or register!

Informacje

Jeżeli chcesz skomentować artykuł musisz być zarejestrowany na stronie.