EXSite.pl - Portal ze wszystkim Mamy tutaj wszystko

NIE MASZ JESZCZE KONTA? ZAREJESTRUJ SIĘ ZA DARMO!   
Przypomnij hasło X

Strażnicy / Watchmen (2009) PL.BluRay.720p.Dual.AC3.x264-DX ENG/PL

Dodał: torpedomax 4 Listopad 2011 18:20


Strażnicy / Watchmen (2009) BluRay 720p DualAudio AC3 x264-DX ENG/PL Napisy PL

Strażnicy / Watchmen (2009) PL.BluRay.720p.Dual.AC3.x264-DX ENG/PL

Produkcja......: USA, Wielka Brytania
Gatunek........: Dramat, Akcja, Sci-Fi
Data premiery..: 2009-03-06 (Polska) , 2009-02-23 (świat)
Reżyseria......: Zack Snyder
Scenariusz.....: Alex Tse , David Hayter

Akcja \Watchmen Strażnicy\ rozgrywa się w latach 80 na Ziemi. Superbohaterowie uznani są powszechnie za banitów i nie mają żadnych praw. Jedynie niewielka ich grupa cały czas pracuje na rzecz ludzkości, ale pod ścisłą kontrolą rządu Stanów Zjednoczonych. W 1985 r. w tajemniczych okolicznościach ginie Komediant, jeden z członków grupy superbohaterów, która została rozwiązana w roku 1977. Sprawę próbuje rozwiązać Rorschach, dawny kompan, który jest przekonany, że śmierć Komedianta nie była przypadkowa. Jego podejrzenia potwierdzają się. Wkrótce kolejni superbohaterowie stają się celami zamachów. Fabuła \"Strażników\" dzieje się na różnych płaszczyznach. Główny wątek opowiada o wydarzeniach z roku 1985, ale akcja cofa się do roku 1977 i do lat wcześniejszych, opowiadając historię alternatywnego świata i jego superbohaterów.

General


Strażnicy / Watchmen (2009) PL.BluRay.720p.Dual.AC3.x264-DX ENG/PLStrażnicy / Watchmen (2009) PL.BluRay.720p.Dual.AC3.x264-DX ENG/PL

Uwaga! Linki nie zakodowane tylko dla zarejestrowanych użytkowników!

Nie masz konta? Zarejestruj się za darmo!
----------------
Links are not encoded only for registered users only! Plese login or register!


Użytkownik VIP

kpkamiloUżytkownik

#1 | Dodany: 4 Listopad 2011 18:25

ormat : Matroska
File size : 2.09 GiB
Duration : 2h 42mn
Overall bit rate : 1 844 Kbps
Writing application : HandBrake 0.9.5
Writing library : libmkv 0.6.4.1
Video #1
ID : 1
Format : AVC
Format/Info : Advanced Video Codec
Format profile : Main@L3.1
Format settings, CABAC : Yes
Format settings, ReFrames : 4 frames
Muxing mode : Container profile=Unknown@3.1
Codec ID : V_MPEG4/ISO/AVC
Duration : 2h 41mn
Bit rate : 1 359 Kbps
Nominal bit rate : 1 403 Kbps
Width : 1 280 pixels
Height : 528 pixels
Display aspect ratio : 2.40:1
Frame rate : 23.976 fps
Resolution : 24 bits
Colorimetry : 4:2:0
Scan type : Progressive
Bits/(Pixel*Frame) : 0.084
Stream size : 1.54 GiB (74%)
Writing library : x264 core 112
Audio #2
ID : 2
Format : AC-3
Format/Info : Audio Coding 3
Codec ID : A_AC3
Duration : 2h 42mn
Bit rate mode : Constant
Bit rate : 448 Kbps
Channel(s) : 6 channels
Channel positions : Front: L C R, Surround: L R, LFE
Sampling rate : 48.0 KHz
Stream size : 519 MiB (24%)
Language : Polish

DOWNLOAD:
http://www.wupload.com/file/1913051781
http://www.wupload.com/file/1913051786
http://www.wupload.com/file/1913051791
http://www.wupload.com/file/1913051796
Użytkownik VIP

torpedomaxUżytkownik

#2 | Dodany: 4 Listopad 2011 19:21

Cytat: kpkamilo
kpkamilo


ta wersja co ty ty zremociłeś ma błędy więc dlatego ja ją usunąłem z komentarza loler

Strażnicy / Watchmen (2009) BluRay m-1080p DualAudio AC3 x264-DX ENG/PL Napisy PL

General




http://ul.to/v3ilwjff/S08DX.part6.rar
http://ul.to/4qz1xqcf/S08DX.part7.rar
http://ul.to/6329zh9g/S08DX.part5.rar
http://ul.to/wpjuxfcz/S08DX.part4.rar
http://ul.to/pq10ycjd/S08DX.part3.rar
http://ul.to/n5tmuph2/S08DX.part2.rar
http://ul.to/hfj5bndc/S08DX.part1.rar

http://filepost.com/files/35de9d5c/S08DX.part1.rar
http://filepost.com/files/m8m7m6d3/S08DX.part2.rar
http://filepost.com/files/beema22b/S08DX.part3.rar
http://filepost.com/files/f1b76583/S08DX.part4.rar
http://filepost.com/files/eeam517e/S08DX.part5.rar
http://filepost.com/files/1ama4e2a/S08DX.part6.rar
http://filepost.com/files/65ecfc8e/S08DX.part7.rar

http://www.filesonic.com/file/2987889254/S08DX.part1.rar
http://www.filesonic.com/file/2987889264/S08DX.part2.rar
http://www.filesonic.com/file/2987889324/S08DX.part3.rar
http://www.filesonic.com/file/2987885004/S08DX.part4.rar
http://www.filesonic.com/file/2987889284/S08DX.part5.rar
http://www.filesonic.com/file/2987872304/S08DX.part6.rar
http://www.filesonic.com/file/2987872124/S08DX.part7.rar

http://www.wupload.com/file/1914116351/S08DX.part1.rar
http://www.wupload.com/file/1914116456/S08DX.part2.rar
http://www.wupload.com/file/1914116336/S08DX.part3.rar
http://www.wupload.com/file/1914116461/S08DX.part4.rar
http://www.wupload.com/file/1914116426/S08DX.part5.rar
http://www.wupload.com/file/1914032306/S08DX.part6.rar
http://www.wupload.com/file/1914116316/S08DX.part7.rar



Resident Evil ( 2002 - 2012 ) Kolekcja Multi.BluRay.1080p.x264.DTS-HDMA.DTS.AC3-DX Lektor i Napisy PL

http://www.exsite.pl/filmy_video_movies/filmy-hd-dvd5-dvd9/789890-kolekcja-resident-evil-2002-2012-bluray1080pduallaudiodtsac3x264-dx-engpl-napisy-pl.html

Gwiezdne wojny / Star Wars (1977-2005) THE.COMPLETE.SAGA.MULTi.HQ.1080p.BluRay.x264.DTS-HDMA.DTS.AC3-DX
LEKTOR, DUBBING i NAPISY PL


http://wklej.to/iE7tg

Informacje

Jeżeli chcesz skomentować artykuł musisz być zarejestrowany na stronie.