EXSite.pl - Portal ze wszystkim Mamy tutaj wszystko

NIE MASZ JESZCZE KONTA? ZAREJESTRUJ SIĘ ZA DARMO!   
Przypomnij hasło X

Wielka ucieczka / The Great Escape (1963) PL.720p.HDTV.x264-.Crash / POLSKI LEKTOR

Dodał: CrashRed 5 Listopad 2011 18:03


Wielka ucieczka / The Great Escape (1963) PL.720p.HDTV.x264-.Crash / POLSKI LEKTOR

Wielka ucieczka / The Great Escape (1963) PL.720p.HDTV.x264-.Crash / POLSKI LEKTOR

Wielka ucieczka / The Great Escape (1963) PL.720p.HDTV.x264-.Crash / POLSKI LEKTOR
http://www.filmweb.pl/film/Wielka+ucieczka-1963-11669

czas trwania: 2 godz. 52 min.
gatunek: Przygodowy, Wojenny
premiera: 4 lipca 1963 (świat) 1963-07-04
reżyseria: John Sturges
scenariusz: W.R. Burnett, James Clavell

II wojna światowa, Niemcy. Dowództwo Luftwaffe sprawujące pieczę nad zestrzelonymi pilotami sił alianckich postanawia zreorganizować swój system obozów jenieckich. Przenoszą wszystkich oficerów z rozsianych po kraju oflagów do jednego, nowoczesnego i najlepiej strzeżonego. Nie zdają sobie sprawy, że tym sposobem zbiorą prawie całą "organizację X" - stworzoną przez więzionych pilotów RAF-u, by przygotowywać ucieczki i chociażby w ten sposób nękać wroga. Brytyjczycy posiadając śmietankę swoich specjalistów od kopania tuneli, fałszowania, zaopatrzenia, a na krawiectwie ko?cząc postanawiają wyprowadzić ok. 200 ludzi.


Wielka ucieczka / The Great Escape (1963) PL.720p.HDTV.x264-.Crash / POLSKI LEKTOR
Wielka ucieczka / The Great Escape (1963) PL.720p.HDTV.x264-.Crash / POLSKI LEKTOR

Format : Matroska
File size : 7.96 GiB
Duration : 2h 45mn
Overall bit rate : 6 902 Kbps
Video
ID : 1
Format : AVC
Format/Info : Advanced Video Codec
Format profile : High@L4.1
Duration : 2h 45mn
Bit rate : 6 515 Kbps
Width : 1 280 pixels
Height : 546 pixels
Display aspect ratio : 2.35:1
Frame rate : 25.000 fps
Stream size : 7.36 GiB (92%)
Title : The Great Escape (1963)
Writing library : x264 core 84 r1400M 20fa784
Language : English
Audi
Format : AC-3
Duration : 2h 45mn
Bit rate mode : Constant
Bit rate : 384 Kbps
Channel(s) : 6 channels
Stream size : 453 MiB (6%)
Title : Crash-Polski
Language : Polish



Wielka ucieczka / The Great Escape (1963) PL.720p.HDTV.x264-.Crash / POLSKI LEKTOR
Uwaga! Linki nie zakodowane tylko dla zarejestrowanych użytkowników!

Nie masz konta? Zarejestruj się za darmo!
----------------
Links are not encoded only for registered users only! Plese login or register!



Użytkownik VIP

CrashRedVIP

#1 | Dodany: 5 Listopad 2011 18:04

ok
Użytkownik VIP

strzelec266Użytkownik

#2 | Dodany: 5 Listopad 2011 18:08

Czemu juz nikt ne wrzuca na rapidshare ? Jakby co to poprosze :)
Użytkownik VIP

CrashRedVIP

#3 | Dodany: 5 Listopad 2011 18:12

strzelec266,
gdzies ty sie uchowal kolego , jaki rapidshare, rapida juz nikt nie uzywa od dobrego roku , przynajmniej w polsce.
Użytkownik VIP

dyskoteka1987Trial Uploader

#4 | Dodany: 5 Listopad 2011 22:47

thx
Użytkownik VIP

motley1Użytkownik

#5 | Dodany: 6 Listopad 2011 11:37

Nieprawda że nie wrzuca nikt na rapida . Rapid znowu ma się dobrze i można ściągac bez konta premium non stop . Polecam rapidshare .!!!
Użytkownik VIP

CrashRedVIP

#6 | Dodany: 6 Listopad 2011 20:09

motley1,
hehe dlatego mozna scigac bez limitu bo nikt z tego nie korzysta i maja pelno stojących nieużywanych serwerow. polecaj rapidshare, a ja życzę powodzenia w znajdowaniu nowych filmów po polsku na rapidzie.

Informacje

Jeżeli chcesz skomentować artykuł musisz być zarejestrowany na stronie.