EXSite.pl - Portal ze wszystkim Mamy tutaj wszystko

NIE MASZ JESZCZE KONTA? ZAREJESTRUJ SIĘ ZA DARMO!   
Przypomnij hasło X

Drużyna A / The A-Team (2010) PL.1080p.Blu-ray.x264-Crash / Extended Cut / POLSKI LEKTOR

Dodał: CrashRed 5 Listopad 2011 18:35


Drużyna A / The A-Team (2010) PL.1080p.Blu-ray.x264-Crash / Extended Cut / POLSKI LEKTOR

Drużyna A / The A-Team (2010) PL.1080p.Blu-ray.x264-Crash /  Extended Cut / POLSKI LEKTOR

Drużyna A / The A-Team (2010) PL.1080p.Blu-ray.x264-Crash /  Extended Cut / POLSKI LEKTOR
http://www.filmweb.pl/film/Dru%C5%BCyna+A-2010-190290

czas trwania: 1 godz. 57 min.
gatunek: Komedia, Akcja
premiera: 11 czerwca 2010 (Polska) 2010-06-11 3 czerwca 2010 (świat) 2010-06-03
reżyseria: Joe Carnahan
scenariusz: Skip Woods, Brian Bloom (więcej...)

Grupa weteranów wojny w Iraku zostaje wrobiona w zabójstwo i postanawia za wszelka cenę odzyskać dobre imię. Kinowa wersja bijącego rekordy popularności komediowego serialu TV, wyreżyserowana przez Joe Carnahana (autora "Asa w rękawie" oraz "W cieniu chwały").


Drużyna A / The A-Team (2010) PL.1080p.Blu-ray.x264-Crash /  Extended Cut / POLSKI LEKTOR
Drużyna A / The A-Team (2010) PL.1080p.Blu-ray.x264-Crash /  Extended Cut / POLSKI LEKTOR

Format : Matroska
File size : 11.1 GiB
Duration : 2h 13mn
Overall bit rate : 11.9 Mbps
Video
Format/Info : Advanced Video Codec
Format profile : High@L4.1
Duration : 2h 13mn
Bit rate : 11.5 Mbps
Width : 1 920 pixels
Height : 816 pixels
Display aspect ratio : 2.35:1
Frame rate : 23.976 fps
Stream size : 10.5 GiB (95%)
Writing library : x264 core 107 r1745 4785e8e
Language : English
Audio
Format : AC-3
Duration : 2h 13mn
Bit rate mode : Constant
Bit rate : 384 Kbps
Channel(s) : 6 channels
Stream size : 367 MiB (3%)
Title : Crash-Polski



Drużyna A / The A-Team (2010) PL.1080p.Blu-ray.x264-Crash /  Extended Cut / POLSKI LEKTOR
Uwaga! Linki nie zakodowane tylko dla zarejestrowanych użytkowników!

Nie masz konta? Zarejestruj się za darmo!
----------------
Links are not encoded only for registered users only! Plese login or register!



Użytkownik VIP

CrashRedVIP

#1 | Dodany: 5 Listopad 2011 18:36

ok

Informacje

Jeżeli chcesz skomentować artykuł musisz być zarejestrowany na stronie.