EXSite.pl - Portal ze wszystkim Mamy tutaj wszystko

NIE MASZ JESZCZE KONTA? ZAREJESTRUJ SIĘ ZA DARMO!   
Przypomnij hasło X

Lekcja przetrwania / The Edge (1997) PL.720p.BluRay.x264-Destiny / POLSKI LEKTOR

Dodał: CrashRed 5 Listopad 2011 18:58


Lekcja przetrwania / The Edge (1997) PL.720p.BluRay.x264-Destiny / POLSKI LEKTOR

Lekcja przetrwania / The Edge (1997) PL.720p.BluRay.x264-Destiny / POLSKI LEKTOR

Lekcja przetrwania / The Edge (1997) PL.720p.BluRay.x264-Destiny / POLSKI LEKTOR
http://www.filmweb.pl/film/Lekcja+przetrwania-1997-96

czas trwania: 1 godz. 57 min.
gatunek: Dramat, Przygodowy
premiera: 17 kwietnia 1998 (Polska) 1998-04-17 6 września 1997 (świat) 1997-09-06
reżyseria: Lee Tamahori
scenariusz: David Mamet

Piękna modelka i jej mąż - milioner przybywają na Alaskę, dziewczyna ma pozować do zdjęć wśród śniegów Północy. Fotograf zaprasza milionera na wycieczkę, samolot ulega katastrofie na bezludziu. Pasażerowie próbują pieszo wrócić do bazy.


Lekcja przetrwania / The Edge (1997) PL.720p.BluRay.x264-Destiny / POLSKI LEKTOR
Lekcja przetrwania / The Edge (1997) PL.720p.BluRay.x264-Destiny / POLSKI LEKTOR

Format : Matroska
File size : 5.48 GiB
Duration : 1h 57mn
Overall bit rate : 6 672 Kbps
Video
ID : 1
Format : AVC
Format/Info : Advanced Video Codec
Format profile : High@L4.1
Duration : 1h 57mn
Bit rate : 6 445 Kbps
Width : 1 280 pixels
Height : 544 pixels
Display aspect ratio : 2.35:1
Frame rate : 23.976 fps
Stream size : 5.19 GiB (95%)
Title : The.Edge.1997.BluRay.720p.DTS.x264-CHD
Writing library : x264 core 88 r1471 1144615
Language : English
Audio
ID : 2
Format : AC-3
Duration : 1h 57mn
Bit rate mode : Constant
Bit rate : 224 Kbps
Channel(s) : 6 channels
Stream size : 188 MiB (3%)
Title : Destiny-Polski



Lekcja przetrwania / The Edge (1997) PL.720p.BluRay.x264-Destiny / POLSKI LEKTOR
Uwaga! Linki nie zakodowane tylko dla zarejestrowanych użytkowników!

Nie masz konta? Zarejestruj się za darmo!
----------------
Links are not encoded only for registered users only! Plese login or register!



Użytkownik VIP

CrashRedVIP

#1 | Dodany: 5 Listopad 2011 18:58

ok
Użytkownik VIP

dyskoteka1987Trial Uploader

#2 | Dodany: 5 Listopad 2011 22:42

thx
Użytkownik VIP

norania0Użytkownik

#3 | Dodany: 6 Listopad 2011 15:39

dzięki ok
Użytkownik VIP

gitaraelektrycznaUżytkownik

#4 | Dodany: 11 Styczeń 2012 21:24

thx love

Informacje

Jeżeli chcesz skomentować artykuł musisz być zarejestrowany na stronie.