EXSite.pl - Portal ze wszystkim Mamy tutaj wszystko

NIE MASZ JESZCZE KONTA? ZAREJESTRUJ SIĘ ZA DARMO!   
Przypomnij hasło X

Zathura - Kosmiczna przygoda / Zathura: A Space Adventure (2005) PL.1080p.BluRay.X264-Crash / POLSKI DUBBING / [Dual Audio]

Dodał: CrashRed 5 Listopad 2011 19:24


Zathura - Kosmiczna przygoda / Zathura: A Space Adventure (2005) PL.1080p.BluRay.X264-Crash / POLSKI DUBBING / [Dual Audio]

Zathura - Kosmiczna przygoda / Zathura: A Space Adventure (2005) PL.1080p.BluRay.X264-Crash / POLSKI DUBBING / [Dual Audio]

Zathura - Kosmiczna przygoda / Zathura: A Space Adventure (2005) PL.1080p.BluRay.X264-Crash / POLSKI DUBBING / [Dual Audio]
http://www.filmweb.pl/Zathura.Kosmiczna.Przygoda

czas trwania: 1 godz. 53 min.
gatunek: Fantasy, Przygodowy
premiera: 20 stycznia 2006 (Polska) 2006-01-20 6 listopada 2005 (świat) 2005-11-06
reżyseria: Jon Favreau
scenariusz: John Kamps, David Koepp

"Zathura. Kosmiczna przygoda" to ekranizacja powieści znanego pisarza dziecięcego Chrisa Van Allsburga. Dwaj bracia Danny i Walter w piwnicy znajdują stare pudełko, w którym znajduje się gra, zwana Zathura. Chłopcy za pomocą gry przenoszą się w kosmos. Tam muszą stawić czoła wszelkim jaszczurkom, piratom, i wytrzymać deszcz meteorytów, jeśli im się nie uda dotrzeć do planety Zathura na zawsze zostaną uwięzieni w kosmosie.



Format : Matroska
File size : 8.10 GiB
Duration : 1h 41mn
Overall bit rate : 11.4 Mbps
Video
Format/Info : Advanced Video Codec
Format profile : High@L4.1
Duration : 1h 41mn
Bit rate : 9 300 Kbps
Width : 1 920 pixels
Height : 1 040 pixels
Display aspect ratio : 16:9
Frame rate : 23.976 fps
Bits/(Pixel*Frame) : 0.194
Stream size : 6.42 GiB (79%)
Writing library : x264 core 115 r2008 4c552d8
Language : English
Audio #1
ID : 2
Format : DTS
Duration : 1h 41mn
Bit rate mode : Constant
Bit rate : 1 510 Kbps
Channel(s) : 6 channels
Stream size : 1.07 GiB (13%)
Language : English
Audio #2
ID : 4
Format : AC-3
Duration : 1h 41mn
Bit rate mode : Constant
Bit rate : 640 Kbps
Channel(s) : 6 channels
Stream size : 464 MiB (6%)
Title : CRASH-POLSKI
Language : Polish

Text
Language : English



Zathura - Kosmiczna przygoda / Zathura: A Space Adventure (2005) PL.1080p.BluRay.X264-Crash / POLSKI DUBBING / [Dual Audio]
Uwaga! Linki nie zakodowane tylko dla zarejestrowanych użytkowników!

Nie masz konta? Zarejestruj się za darmo!
----------------
Links are not encoded only for registered users only! Plese login or register!



Użytkownik VIP

CrashRedVIP

#1 | Dodany: 5 Listopad 2011 19:24

ok
Użytkownik VIP

DeimossUżytkownik

#2 | Dodany: 21 Grudzień 2011 21:05

Nie wrzucajcie syfu typu matroska, tylko zrzuty 1:1

Informacje

Jeżeli chcesz skomentować artykuł musisz być zarejestrowany na stronie.