EXSite.pl - Portal ze wszystkim Mamy tutaj wszystko

NIE MASZ JESZCZE KONTA? ZAREJESTRUJ SIĘ ZA DARMO!   
Przypomnij hasło X

Piekielna zemsta / Drive Angry (2011) PL.BluRay.720p.x264-Destiny / POLSKI LEKTOR +mHD

Dodał: CrashRed 12 Listopad 2011 18:07


Piekielna zemsta / Drive Angry (2011) PL.BluRay.720p.x264-Destiny / POLSKI LEKTOR

Piekielna zemsta / Drive Angry (2011) PL.BluRay.720p.x264-Destiny / POLSKI LEKTOR +mHD

Piekielna zemsta / Drive Angry (2011) PL.BluRay.720p.x264-Destiny / POLSKI LEKTOR +mHD
http://www.filmweb.pl/film/Piekielna+zemsta-2011-539302

czas trwania: 1 godz. 44 min.
gatunek: Fantasy, Thriller, Akcja
premiera: 25 lutego 2011 (Polska) 2011-02-25 24 lutego 2011 (świat) 2011-02-24
reżyseria: Patrick Lussier
scenariusz: Patrick Lussier, Todd Farmer

Milton po śmierci trafił do piekła. Ale nawet diabelskie siły nie są w stanie go powstrzymać, gdy dowiaduje się, że jego córka nie żyje. Jonah King, przywódca satanistycznej sekty, zabił ją i porwał jej male?kie dziecko, by złożyć je w ofierze. Milton ucieka z piekła do świata żywych. Rozpoczyna wyścig z czasem, by dopaść Kinga, zanim ten rozpocznie rytuał. śladem Miltona podąża diabelski Księgowy.


Format : Matroska
File size : 4.87 GiB
Duration : 1h 44mn
Overall bit rate : 6 675 Kbps
Video
Format/Info : Advanced Video Codec
Format profile : High@L4.1
Duration : 1h 44mn
Bit rate : 6 030 Kbps
Width : 1 280 pixels
Height : 720 pixels
Display aspect ratio : 16:9
Frame rate : 23.976 fps
Stream size : 4.31 GiB (88%)
Title : Drive.Angry.2011.BluRay.720p.DTS.x264-CHD
Writing library : x264 core 114 r1913 5fd3dce
Language : English
Audio
Format : AC-3
Duration : 1h 44mn
Bit rate mode : Constant
Bit rate : 640 Kbps
Channel(s) : 6 channels
Stream size : 478 MiB (10%)



Piekielna zemsta / Drive Angry (2011) PL.BluRay.720p.x264-Destiny / POLSKI LEKTOR +mHD
Uwaga! Linki nie zakodowane tylko dla zarejestrowanych użytkowników!

Nie masz konta? Zarejestruj się za darmo!
----------------
Links are not encoded only for registered users only! Plese login or register!






Piekielna zemsta / Drive Angry (2011) PL.m720p.BluRay.x264-Destiny / POLSKI LEKTOR

Format : Matroska
File size : 2.44 GiB
Duration : 1h 44mn
Overall bit rate : 3 343 Kbps
Video
ID : 1
Format : AVC
Format/Info : Advanced Video Codec
Format profile : High@L4.1
Duration : 1h 44mn
Bit rate : 2 700 Kbps
Width : 1 280 pixels
Height : 720 pixels
Display aspect ratio : 16:9
Frame rate : 23.976 fps
Stream size : 1.92 GiB (79%)
Writing library : x264 core 115 r1995 c1e60b9
Language : English
Audio
Format : AC-3
Duration : 1h 44mn
Bit rate mode : Constant
Bit rate : 640 Kbps
Channel(s) : 6 channels
Stream size : 478 MiB (19%)
Title : Destiny-Polski
Language : Polish


Uwaga! Linki nie zakodowane tylko dla zarejestrowanych użytkowników!

Nie masz konta? Zarejestruj się za darmo!
----------------
Links are not encoded only for registered users only! Plese login or register!




Użytkownik VIP

CrashRedVIP

#1 | Dodany: 5 Listopad 2011 19:47

Piekielna zemsta / Drive Angry (2011) PL.1080p.BluRay.x264-Destiny / POLSKI LEKTOR

Format : Matroska
File size : 7.02 GiB
Duration : 1h 44mn
Overall bit rate : 9 613 Kbps
Video
ID : 1
Format : AVC
Format/Info : Advanced Video Codec
Format profile : High@L4.1
Duration : 1h 44mn
Bit rate : 8 963 Kbps
Width : 1 920 pixels
Height : 1 080 pixels
Display aspect ratio : 16:9
Frame rate : 23.976 fps
Stream size : 6.41 GiB (91%)
Writing library : x264 core 115 r1995 c1e60b9
Language : English
Audio
Format : AC-3
Duration : 1h 44mn
Bit rate mode : Constant
Bit rate : 640 Kbps
Channel(s) : 6 channels
Stream size : 478 MiB (7%)
Title : Destiny-Polski
Language : Polish
V: TWiZTED


Uwaga! Linki nie zakodowane tylko dla zarejestrowanych użytkowników!

Nie masz konta? Zarejestruj się za darmo!
----------------
Links are not encoded only for registered users only! Plese login or register!

Informacje

Jeżeli chcesz skomentować artykuł musisz być zarejestrowany na stronie.