EXSite.pl - Portal ze wszystkim Mamy tutaj wszystko

NIE MASZ JESZCZE KONTA? ZAREJESTRUJ SIĘ ZA DARMO!   
Przypomnij hasło X

SpongeBob Kanciastoporty / The SpongeBob SquarePants Movie (2004) PL.720p.BluRay.x264 / POLSKI LEKTOR

Dodał: CrashRed 5 Listopad 2011 20:16


SpongeBob Kanciastoporty / The SpongeBob SquarePants Movie (2004) PL.720p.BluRay.x264 / POLSKI LEKTOR

SpongeBob Kanciastoporty / The SpongeBob SquarePants Movie (2004) PL.720p.BluRay.x264 / POLSKI LEKTOR

SpongeBob Kanciastoporty / The SpongeBob SquarePants Movie (2004) PL.720p.BluRay.x264 / POLSKI LEKTOR
http://www.filmweb.pl/film/SpongeBob+Kanciastoporty-2004-108796

czas trwania: 1 godz. 27 min.
gatunek: Animacja, Komedia, Przygodowy
premiera: 14 listopada 2004 (świat) 2004-11-14
reżyseria: Sherm Cohen, Stephen Hillenburg
scenariusz: Stephen Hillenburg, Kent Osborne

Pełnometrażowy film na podstawie emitowanego w latach 1999-2003 serialu animowanego, którego pomysłodawcą był debiutujący w filmie jako scenarzysta Stephen Hillenburg. SpongeBob SquarePants to optymistycznie nastawiony do życia przedstawiciel gatunku gąbek morskich, który od urodzenia ma prostokątny kształt, dlatego bardzo przypomina zwyczajną kuchenną gąbkę. Mieszka na dnie morza, w społeczności miasteczka Bikini Bottom, pracuje jako kucharz w lokalu Krusty Krab, a jego najlepszymi przyjaciółmi są kałamarnica i rozgwiazda.


Format : Matroska
File size : 3.55 GiB
Duration : 1h 27mn
Overall bit rate : 5 830 Kbps
Video
Format/Info : Advanced Video Codec
Format profile : High@L4.1
Duration : 1h 27mn
Bit rate : 3 869 Kbps
Width : 1 280 pixels
Height : 720 pixels
Display aspect ratio : 16:9
Frame rate : 23.976 fps
Stream size : 2.29 GiB (64%)
Writing library : x264 core 114 r1913 5fd3dce
Language : English
Audio #1
Format : AC-3
Duration : 1h 27mn
Bit rate mode : Constant
Bit rate : 448 Kbps
Channel(s) : 6 channels
Stream size : 279 MiB (8%)
Language : Polish
Audio #2
Format : DTS
Duration : 1h 27mn
Bit rate mode : Constant
Bit rate : 1 510 Kbps
Channel(s) : 6 channels
Stream size : 941 MiB (26%)
Language : English
Text
Language : Polish



SpongeBob Kanciastoporty / The SpongeBob SquarePants Movie (2004) PL.720p.BluRay.x264 / POLSKI LEKTOR
Uwaga! Linki nie zakodowane tylko dla zarejestrowanych użytkowników!

Nie masz konta? Zarejestruj się za darmo!
----------------
Links are not encoded only for registered users only! Plese login or register!



Użytkownik VIP

CrashRedVIP

#1 | Dodany: 5 Listopad 2011 20:17

ok
Użytkownik VIP

fireman123Użytkownik

#2 | Dodany: 5 Listopad 2011 21:16

Pytanko zasadnicze LEKTOR czy DUBBING? belay
Prawdziwy przyjaciel nigdy nie zapyta - dlaczego? On po prostu idzie do sklepu, kupi, przyniesie, otworzy i poleje.
Użytkownik VIP

CrashRedVIP

#3 | Dodany: 5 Listopad 2011 21:20

fireman123,
hmmm wiesz co zwatpilem bo opis robilem jakis czas temu a z dysku wykasowalem , ale chyba dubbing no chyba ze sie pomylilem :)
Użytkownik VIP

sakenomiUżytkownik

#4 | Dodany: 6 Listopad 2011 01:24

Lektor - film nie byl w Polsce dubbingowany.
Użytkownik VIP

DeePdIVErUżytkownik

#5 | Dodany: 6 Listopad 2011 09:19

Cytat: fireman123
Pytanko zasadnicze LEKTOR czy DUBBING?

Sprawdziłem. Lektor i dodatkowo napisy PL. ok
Kobiety rzadko przebaczają temu, kto forsuje okazję. Ale nigdy temu, kto pomija sposobność.

Informacje

Jeżeli chcesz skomentować artykuł musisz być zarejestrowany na stronie.