EXSite.pl - Portal ze wszystkim Mamy tutaj wszystko

NIE MASZ JESZCZE KONTA? ZAREJESTRUJ SIĘ ZA DARMO!   
Przypomnij hasło X

Cinderella Story / A Cinderella Story (2004) PL.BluRay.720p.x264-Destiny / POLSKI LEKTOR

Dodał: CrashRed 6 Listopad 2011 16:47


Cinderella Story / A Cinderella Story (2004) PL.BluRay.720p.x264-Destiny / POLSKI LEKTOR

Cinderella Story / A Cinderella Story (2004) PL.BluRay.720p.x264-Destiny / POLSKI LEKTOR

Cinderella Story / A Cinderella Story (2004) PL.BluRay.720p.x264-Destiny / POLSKI LEKTOR
http://www.filmweb.pl/film/Cinderella+Story-2004-105898

czas trwania: 1 godz. 35 min.
gatunek: Familijny, Komedia rom.
premiera: 11 marca 2005 (Polska) 2005-03-11 10 lipca 2004 (świat) 2004-07-10
reżyseria: Mark Rosman
scenariusz: Roger Kumble, Leigh Dunlap

Współczesna opowieść o kopciuszku. Pewna nastolatka jest zmuszana przez macochę do wykonywania najcięższych prac domowych. Jedyną odskocznią od niewesołej rzeczywistości jest dla niej internetowa korespondencja z pewnym uroczym nieznajomym. Wkrótce nadarzy się okazja na poznanie osobiście tajemniczego chłopaka, gdyż zbliża się wielki szkolny bal maskowy...


Cinderella Story / A Cinderella Story (2004) PL.BluRay.720p.x264-Destiny / POLSKI LEKTOR
Cinderella Story / A Cinderella Story (2004) PL.BluRay.720p.x264-Destiny / POLSKI LEKTOR

Format : Matroska
File size : 3.62 GiB
Duration : 1h 35mn
Overall bit rate : 5 439 Kbps
Video
ID : 1
Format : AVC
Format/Info : Advanced Video Codec
Format profile : High@L4.1
Codec ID : V_MPEG4/ISO/AVC
Duration : 1h 35mn
Bit rate : 5 055 Kbps
Width : 1 280 pixels
Height : 724 pixels
Display aspect ratio : 16:9
Frame rate : 23.976 fps
Stream size : 3.29 GiB (91%)
Writing library : x264 core 104 r1703 cd21d05
Language : English
Audio
Format : AC-3
Duration : 1h 35mn
Bit rate mode : Constant
Bit rate : 384 Kbps
Channel(s) : 6 channels
Stream size : 261 MiB (7%)
Title : Destiny-Polski



Cinderella Story / A Cinderella Story (2004) PL.BluRay.720p.x264-Destiny / POLSKI LEKTOR
Uwaga! Linki nie zakodowane tylko dla zarejestrowanych użytkowników!

Nie masz konta? Zarejestruj się za darmo!
----------------
Links are not encoded only for registered users only! Plese login or register!



Użytkownik VIP

CrashRedVIP

#1 | Dodany: 6 Listopad 2011 16:47

ok

Informacje

Jeżeli chcesz skomentować artykuł musisz być zarejestrowany na stronie.