EXSite.pl - Portal ze wszystkim Mamy tutaj wszystko

NIE MASZ JESZCZE KONTA? ZAREJESTRUJ SIĘ ZA DARMO!   
Przypomnij hasło X

Legionista / Legionnaire (1998) PL.720p.BluRay.x264-Destiny / POLSKI LEKTOR

Dodał: CrashRed 6 Listopad 2011 17:16


Legionista / Legionnaire (1998) PL.720p.BluRay.x264-Destiny / POLSKI LEKTOR

Legionista / Legionnaire (1998) PL.720p.BluRay.x264-Destiny / POLSKI LEKTOR

Legionista / Legionnaire (1998) PL.720p.BluRay.x264-Destiny / POLSKI LEKTOR
http://www.filmweb.pl/film/Legionista-1998-726

czas trwania: 1 godz. 38 min.
gatunek: Dramat, Przygodowy, Wojenny, Akcja
premiera: 3 grudnia 1998 (świat) 1998-12-03
reżyseria: Peter MacDonald
scenariusz: Sheldon Lettich, Rebecca Morrison

Alain Lefevre (Jean-Claude Van Damme) jest człowiekiem, który prowadzi rozwiązły tryb życia. Jego dzie? codzienny to zabawy, kobiety, rozrywki... Wszystko zmienia się jednak gdy poznaje Katrine (Ana Sofrenović). Zakoch*je się w niej. Planuje związać się z nią na zawsze. Alain stara się zmienić swoje życie, cały swój wolny czas spędza z narzeczoną, ale nie jest łatwo zerwać z przeszłością. W dniu ślubu górę bierze jego prawdziwe "ja". Alain rezygnuje z ożenku i powraca do dawnego trybu życia. Po
latach ponownie spotyka Katrinę. Ta jednak jest związana z innym mężczyzną, który notabene prowadzi dziwne interesy. Alain jest zmuszony uciekać przed rozwścieczonym przestępcą do Legii Cudzoziemskiej. Tam przechodzi prawdziwą szkołę życia. W Legii poznaje też prawdziwych przyjaciół


Legionista / Legionnaire (1998) PL.720p.BluRay.x264-Destiny / POLSKI LEKTOR
Legionista / Legionnaire (1998) PL.720p.BluRay.x264-Destiny / POLSKI LEKTOR

Format : Matroska
File size : 3.60 GiB
Duration : 1h 38mn
Overall bit rate : 5 230 Kbps
Video
Format/Info : Advanced Video Codec
Format profile : High@L4.1
Duration : 1h 38mn
Bit rate : 4 843 Kbps
Width : 1 280 pixels
Height : 544 pixels
Display aspect ratio : 2.35:1
Frame rate : 24.000 fps
Stream size : 3.26 GiB (91%)
Writing library : x264 core 107 r1745 4785e8e
Language : English
Audio
Format : AC-3
Duration : 1h 38mn
Bit rate mode : Constant
Bit rate : 384 Kbps
Channel(s) : 6 channels
Stream size : 270 MiB (7%)
Title : Destiny-Polski



Legionista / Legionnaire (1998) PL.720p.BluRay.x264-Destiny / POLSKI LEKTOR
Uwaga! Linki nie zakodowane tylko dla zarejestrowanych użytkowników!

Nie masz konta? Zarejestruj się za darmo!
----------------
Links are not encoded only for registered users only! Plese login or register!



Użytkownik VIP

CrashRedVIP

#1 | Dodany: 6 Listopad 2011 17:16

ok
Użytkownik VIP

dyskoteka1987Trial Uploader

#2 | Dodany: 6 Listopad 2011 18:10

thx thx thx

Informacje

Jeżeli chcesz skomentować artykuł musisz być zarejestrowany na stronie.