EXSite.pl - Portal ze wszystkim Mamy tutaj wszystko

NIE MASZ JESZCZE KONTA? ZAREJESTRUJ SIĘ ZA DARMO!   
Przypomnij hasło X

Miasteczko South Park / South Park: Bigger, Longer & Uncut (1999) PL.1080p.BluRay.x264-Crash / POLSKI LEKTOR

Dodał: CrashRed 6 Listopad 2011 17:44


Miasteczko South Park / South Park: Bigger, Longer & Uncut (1999) PL.1080p.BluRay.x264-Crash / POLSKI LEKTOR

Miasteczko South Park / South Park: Bigger, Longer & Uncut (1999) PL.1080p.BluRay.x264-Crash / POLSKI LEKTOR

Miasteczko South Park / South Park: Bigger, Longer & Uncut (1999) PL.1080p.BluRay.x264-Crash / POLSKI LEKTOR
http://www.filmweb.pl/film/Miasteczko+South+Park-1999-850

czas trwania: 1 godz. 21 min.
gatunek: Animacja, Komedia, Musical
premiera: 3 marca 2000 (Polska) 2000-03-03 30 czerwca 1999 (świat) 1999-06-30
reżyseria: Trey Parker
scenariusz: Matt Stone, Trey Parker (więcej...)

Film rysunkowy, którego akcja toczy się współcześnie w Stanach Zjednoczonych, w niewielkim mieście. Grupa uczniów ze szkoły podstawowej wybiera się do kina na film przeznaczony wyłącznie dla dorosłych. Kasjerki odmawiają sprzedaży biletów, chłopcy proszą o przysługę przechodnia. Ekranowi bohaterowie zachowują się wulgarnie, dzieciaki ich naśladują.



Format : Matroska
File size : 4.14 GiB
Duration : 1h 21mn
Overall bit rate : 7 289 Kbps
Video
Format/Info : Advanced Video Codec
Format profile : High@L4.1
Duration : 1h 21mn
Bit rate : 7 063 Kbps
Width : 1 920 pixels
Height : 1 080 pixels
Display aspect ratio : 16:9
Frame rate : 23.976 fpsssive
Bits/(Pixel*Frame) : 0.142
Stream size : 3.93 GiB (95%)
Writing library : x264 core 76 r1271 496d79d
Language : English
Audio
ID : 2
Format : AC-3
Duration : 1h 21mn
Bit rate mode : Constant
Bit rate : 224 Kbps
Channel(s) : 2 channels
Stream size : 130 MiB (3%)
Title : Crash-Polski



Miasteczko South Park / South Park: Bigger, Longer & Uncut (1999) PL.1080p.BluRay.x264-Crash / POLSKI LEKTOR
Uwaga! Linki nie zakodowane tylko dla zarejestrowanych użytkowników!

Nie masz konta? Zarejestruj się za darmo!
----------------
Links are not encoded only for registered users only! Plese login or register!



NIESTETY NIE DOKONCA SIE WSZYSTKO PRAWIDŁOWO WYSŁAŁO, DLATEGO PARTY 7, 9 I 10 MUSZA BYS SCIĄGNIENIE Z FILESONIC GWARANTUJE TO POPRAWNOśĆ ROZPAKOWANIA, RESZTA PARTOW WEDŁUG UZNANIA.

Użytkownik VIP

CrashRedVIP

#1 | Dodany: 6 Listopad 2011 17:44

ok
Użytkownik VIP

dyskoteka1987Trial Uploader

#2 | Dodany: 6 Listopad 2011 18:23

To z kapitanem bomba na czele ... Git produkcje
http://www.youtube.com/watch?v=bMPpwUuwjRQ
wink wink wink
Użytkownik VIP

jaro171Użytkownik

#3 | Dodany: 6 Listopad 2011 19:55

CrashRed super wstawka ok A czy mógłbym prosić o wersję m720p ?
Użytkownik VIP

xonobulaxUżytkownik

#4 | Dodany: 7 Listopad 2011 01:33

pliki 7,9 i 10 są uszkodzone-po naprawie archiwum to samo
Użytkownik VIP

CrashRedVIP

#5 | Dodany: 7 Listopad 2011 03:37

xonobulax,
rzeczywiście cos sie zle wyslalo , ale na filesonic linki sa 100% sprawne bo sprawdzilem tak ze bledne linki nalezy ściągnąć z filesonic i bedzie ok , cos chyba niestety moj shel szwankuje :/
Użytkownik VIP

k070723Użytkownik

#6 | Dodany: 2 Styczeń 2012 11:22

thx thx

Informacje

Jeżeli chcesz skomentować artykuł musisz być zarejestrowany na stronie.