EXSite.pl - Portal ze wszystkim Mamy tutaj wszystko

NIE MASZ JESZCZE KONTA? ZAREJESTRUJ SIĘ ZA DARMO!   
Przypomnij hasło X

Tylko dla orłów / Where Eagles Dare (1968) PL.BluRay.1080p.x264-Crash / POLSKI LEKTOR

Dodał: CrashRed 6 Listopad 2011 18:19


Tylko dla orłów / Where Eagles Dare (1968) PL.BluRay.1080p.x264-Crash / POLSKI LEKTOR

Tylko dla orłów / Where Eagles Dare (1968) PL.BluRay.1080p.x264-Crash / POLSKI LEKTOR

Tylko dla orłów / Where Eagles Dare (1968) PL.BluRay.1080p.x264-Crash / POLSKI LEKTOR
http://www.filmweb.pl/Tylko.Dla.Orlow

czas trwania: 2 godz. 38 min.
gatunek: Wojenny, Akcja
premiera: 4 grudnia 1968 (świat) 1968-12-04
reżyseria: Brian G. Hutton
scenariusz: Alistair MacLean

Podczas drugiej wojny światowej na niemieckim terytorium rozbija się angielski samolot. Niemcy pojmują jedynego ocalałego - ameryka?skiego generała. Nie zdają sobie sprawy, że schwytany posiada wszelkie informacje dotyczące planów inwazji aliantów. Anglicy decydują, iż nie można pozwolić, aby generał mógł ujawnić jakiekolwiek szczegóły dotyczące inwazji na Normandię. Powołana zostaje specjalna grupa, której zadaniem jest uratowanie więzionego generała. Podczas zrzutu grupy na terytorium wroga ginie jeden z uczestników. Jednocześnie okazuje się, ze misja jest o wiele bardziej skomplikowana...



Tylko dla orłów / Where Eagles Dare (1968) PL.BluRay.1080p.x264-Crash / POLSKI LEKTOR
Tylko dla orłów / Where Eagles Dare (1968) PL.BluRay.1080p.x264-Crash / POLSKI LEKTOR

Format : Matroska
File size : 11.5 GiB
Duration : 2h 35mn
Overall bit rate : 10.6 Mbps
Video
Format/Info : Advanced Video Codec
Format profile : High@L4.1
Duration : 2h 35mn
Bit rate : 10.4 Mbps
Width : 1 920 pixels
Height : 800 pixels
Display aspect ratio : 2.40:1
Frame rate : 23.976 fps
Stream size : 11.0 GiB (96%)
Writing library : x264 core 98 r1649 c54c47d
Language : English
Audio
ID : 2
Format : AC-3
Duration : 2h 35mn
Bit rate mode : Constant
Bit rate : 256 Kbps
Channel(s) : 2 channels
Stream size : 284 MiB (2%)
Title : Crash-Polski



Tylko dla orłów / Where Eagles Dare (1968) PL.BluRay.1080p.x264-Crash / POLSKI LEKTOR
Uwaga! Linki nie zakodowane tylko dla zarejestrowanych użytkowników!

Nie masz konta? Zarejestruj się za darmo!
----------------
Links are not encoded only for registered users only! Plese login or register!



Użytkownik VIP

CrashRedVIP

#1 | Dodany: 6 Listopad 2011 18:19

ok
Użytkownik VIP

dyskoteka1987Trial Uploader

#2 | Dodany: 6 Listopad 2011 18:45

thx thx thx
Użytkownik VIP

CrashRedVIP

#3 | Dodany: 6 Listopad 2011 18:46

dyskoteka1987,
na naczelnego thx zawsze mozna liczyc :)
Użytkownik VIP

adam - mazUżytkownik

#4 | Dodany: 6 Listopad 2011 19:50

super ok
Użytkownik VIP

dyskoteka1987Trial Uploader

#5 | Dodany: 6 Listopad 2011 22:58

Pochlebiasz mi ... jeszcze się w tobie zakocham he he ... wink



Wyczerpałem pomysły na komentarze , ułatwiam sobie sprawę wystawiając THX ... to taka nowa moda z USA , okazuje ci szacunek poprzez komentarze , wiem , dziwne to ... no cóż takie czasy , Ty to robisz , my pobieramy i każdy jest szczęśliwy ... tak to funkcjonuje, na ripach do osr.....j śmierci ... he he , Pozdrawiam kolego , Najlepsze tematy dodajesz , to zasługuje na wyróżnienie Pozdro !!!! thx loler

Informacje

Jeżeli chcesz skomentować artykuł musisz być zarejestrowany na stronie.