EXSite.pl - Portal ze wszystkim Mamy tutaj wszystko

NIE MASZ JESZCZE KONTA? ZAREJESTRUJ SIĘ ZA DARMO!   
Przypomnij hasło X

Karate Kid / The Karate Kid (2010) PLDUB.720p.BluRay.x264-Crash / POLSKI DUBBING

Dodał: CrashRed 6 Listopad 2011 18:45


Karate Kid / The Karate Kid (2010) PLDUB.720p.BluRay.x264-Crash / POLSKI DUBBING

Karate Kid / The Karate Kid (2010) PLDUB.720p.BluRay.x264-Crash / POLSKI DUBBING

Karate Kid / The Karate Kid (2010) PLDUB.720p.BluRay.x264-Crash / POLSKI DUBBING
http://www.filmweb.pl/film/Karate+Kid-2010-493700

czas trwania: 2 godz. 20 min.
gatunek: Dramat, Familijny, Akcja, Sportowy, Sztuki walki
premiera: 24 września 2010 (Polska) 2010-09-24 10 czerwca 2010 (świat) 2010-06-10
reżyseria: Harald Zwart
scenariusz: Michael Soccio, Christopher Murphey

Dre /Jaden Smith/ razem z matka przeprowadza się do Chin gdzie postanawia ćwiczyć sztuki walki i poznaje pana Hana /Jackie Chan/. Ten będzie wprowadzał go we wszystkie tajniki walk.


Format : Matroska
File size : 5.46 GiB
Duration : 2h 20mn
Overall bit rate : 5 582 Kbps
Movie name : The Karate Kid (2010) 720p.Blu-ray.DTS.x264-ViSTA™
Video
ID : 1
Format : AVC
Format profile : High@L4.1
Duration : 2h 20mn
Bit rate : 5 196 Kbps
Width : 1 280 pixels
Height : 536 pixels
Display aspect ratio : 2.35:1
Frame rate : 23.976 fps
Stream size : 4.98 GiB (91%)
Writing library : x264 core 102 r1666 d058f37
Language : English
Audio
Format : AC-3
Duration : 2h 20mn
Bit rate mode : Constant
Bit rate : 384 Kbps
Channel(s) : 6 channels
Stream size : 385 MiB (7%)
Title : Crash-Polski



Karate Kid / The Karate Kid (2010) PLDUB.720p.BluRay.x264-Crash / POLSKI DUBBING
Uwaga! Linki nie zakodowane tylko dla zarejestrowanych użytkowników!

Nie masz konta? Zarejestruj się za darmo!
----------------
Links are not encoded only for registered users only! Plese login or register!



Użytkownik VIP

CrashRedVIP

#1 | Dodany: 6 Listopad 2011 18:45



Karate Kid / The Karate Kid (2010) PLDUB.1080p.BluRay.x264-Crash / POLSKI DUBBING

Format : Matroska
File size : 12.1 GiB
Duration : 2h 20mn
Overall bit rate : 12.4 Mbps
Movie name : The Karate Kid (2010) 1080p.Blu-ray.DTS.x264-ViSTA
Video
ID : 1
Format : AVC
Format profile : High@L4.1
Duration : 2h 20mn
Bit rate : 12.0 Mbps
Width : 1 920 pixels
Height : 800 pixels
Display aspect ratio : 2.40:1
Frame rate : 23.976 fps
Stream size : 11.5 GiB (95%)
Writing library : x264 core 105 r1724 b02df7b
Language : English
Audio
Format : AC-3
Duration : 2h 20mn
Bit rate mode : Constant
Bit rate : 384 Kbps
Channel(s) : 6 channels
Stream size : 385 MiB (3%)
Title : Crash-Polski
Language : Polish


Uwaga! Linki nie zakodowane tylko dla zarejestrowanych użytkowników!

Nie masz konta? Zarejestruj się za darmo!
----------------
Links are not encoded only for registered users only! Plese login or register!

Informacje

Jeżeli chcesz skomentować artykuł musisz być zarejestrowany na stronie.