EXSite.pl - Portal ze wszystkim Mamy tutaj wszystko

NIE MASZ JESZCZE KONTA? ZAREJESTRUJ SIĘ ZA DARMO!   
Przypomnij hasło X

Robin Hood (1973) PL.720p.HDTV.x264 / POLSKI DUBBING

Dodał: CrashRed 6 Listopad 2011 19:47


Robin Hood (1973) PL.720p.HDTV.x264 / POLSKI DUBBING

Robin Hood (1973) PL.720p.HDTV.x264 / POLSKI DUBBING

Robin Hood (1973) PL.720p.HDTV.x264 / POLSKI DUBBING
http://www.filmweb.pl/film/Robin+Hood-1973-35390

czas trwania: 1 godz. 23 min.
gatunek: Animacja, Familijny, Komedia, Przygodowy
premiera: 8 listopada 1973 (świat) 1973-11-08
reżyseria: Wolfgang Reitherman

Disneyowska wersja przygód Robin Hooda. Wszyscy bohaterowie - Robin Hood i jego kompania, piękna Marion, zły szeryf z Nottingham - są tu przedstawicielami królestwa zwierząt. Na angielskim tronie zasiada uzurpator, ściągający z poddanych lichwiarskie podatki. Przebiegły lis Robin grasuje po lesie Sherwood i okrada bogatych, by nakarmić biednych. Wkrótce pomaga także wrócić na tron prawowitemu monarsze.


Format : Matroska
File size : 4.00 GiB
Duration : 1h 23mn
Overall bit rate : 6 896 Kbps
Video
ID : 1
Format : AVC
Format/Info : Advanced Video Codec
Format profile : High@L4.1
Duration : 1h 23mn
Bit rate : 6 513 Kbps
Width : 1 280 pixels
Height : 720 pixels
Display aspect ratio : 16:9
Frame rate : 23.976 fps
Stream size : 3.70 GiB (92%)
Writing library : x264 core 110 r1820+3 c488b3b
Language : English
Audio
Format : AC-3
Duration : 1h 23mn
Bit rate : 384 Kbps
Channel(s) : 2 channels
Stream size : 228 MiB (6%)
Language : Polish



Robin Hood (1973) PL.720p.HDTV.x264 / POLSKI DUBBING
Uwaga! Linki nie zakodowane tylko dla zarejestrowanych użytkowników!

Nie masz konta? Zarejestruj się za darmo!
----------------
Links are not encoded only for registered users only! Plese login or register!



Użytkownik VIP

CrashRedVIP

#1 | Dodany: 6 Listopad 2011 19:47

ok

Informacje

Jeżeli chcesz skomentować artykuł musisz być zarejestrowany na stronie.