EXSite.pl - Portal ze wszystkim Mamy tutaj wszystko

NIE MASZ JESZCZE KONTA? ZAREJESTRUJ SIĘ ZA DARMO!   
Przypomnij hasło X

Anaconda (1997) 1080p.Blu-ray.Remux.AVC.TrueHD 5 1-KRaLiMaRKo

Dodał: ampatinis 6 Listopad 2011 20:37


Anaconda (1997) 1080p.Blu-ray.Remux.AVC.TrueHD 5 1-KRaLiMaRKo

Anaconda (1997) 1080p.Blu-ray.Remux.AVC.TrueHD 5 1-KRaLiMaRKo

Anaconda (1997) 1080p.Blu-ray.Remux.AVC.TrueHD 5 1-KRaLiMaRKo
czas trwania: 1 godz. 29 min.
gatunek: Horror, Przygodowy
premiera: 11 lipca 1997 (Polska) 11 kwietnia 1997 (świat)
reżyseria: Luis Llosa
scenariusz: Jack Epps Jr., Hans Bauer

Ekipa filmowa wybiera się na wyprawę Amazonką, aby sfilmować zwyczaje pewnego tajemniczego india?skiego plemienia. Po drodze spotykają mężczyznę - Paula (Jon Voight), którego statek ugrzązł na mieliźnie. Obiecuje on im doprowadzenie do wioski Indian. Niestety powodzenie wyprawy szybko staje pod znakiem zapytania. Jeden z uczestników zostaje użądlony przez osę wodną i trzeba go jak najprędzej odwieźć do cywilizowanego szpitala. Na swojej drodze napotykają tamę. Przy jej wysadzaniu beczki z paliwem spadają z pokładu.


GENERAL
Format: Matroska
Size: 18.5 GB
Duration: 1:29:20 (h:m:s)
Source: ANACONDA_BD
Chapters: YES (named)
Compression: zlib disabled, header stripping disabled

VIDEO
Format: AVC
Type: progressive
Resolution: 1920x1080
Bit rate: 25.7 mbps
Frame rate: 23.976 fps

AUDIO 1
Format: TrueHD
Channels: 5.1
Bit depth: 24-bit
Sample rate: 48 kHz
Bit rate: 2917 kbps
Language: English

AUDIO 2
Format: AC3 embedded
Channels: 5.1
Sample rate: 48 kHz
Bit rate: 640 kbps
Language: English

SUBTITLES
Format: PGS (original)
Language: English, English(SDH), Arabic, Bulgarian, Croatian, Czech, Dutch, French, German, Greek, Hebrew, Hindi, Hungarian, Icelandic, Polish, Romanian, Slovak, Slovenian, Turkish


Anaconda (1997) 1080p.Blu-ray.Remux.AVC.TrueHD 5 1-KRaLiMaRKo
Anaconda (1997) 1080p.Blu-ray.Remux.AVC.TrueHD 5 1-KRaLiMaRKo Anaconda (1997) 1080p.Blu-ray.Remux.AVC.TrueHD 5 1-KRaLiMaRKo

Anaconda (1997) 1080p.Blu-ray.Remux.AVC.TrueHD 5 1-KRaLiMaRKo
Uwaga! Linki nie zakodowane tylko dla zarejestrowanych użytkowników!

Nie masz konta? Zarejestruj się za darmo!
----------------
Links are not encoded only for registered users only! Plese login or register!



Użytkownik VIP

CrashRedVIP

#1 | Dodany: 2 Grudzień 2011 13:46

Anakonda / Anaconda (1997) DUAL.1080p.BluRay.x264-BRY | Lektor PL
Format : Matroska
File size : 6.40 GiB
Duration : 1h 29mn
Overall bit rate : 10.3 Mbps
Movie name : Anaconda.1997.DUAL.1080p.BluRay.x264-BRY
Video
Format/Info : Advanced Video Codec
Format profile : High@L4.1
Duration : 1h 29mn
Bit rate : 8 972 Kbps
Width : 1 920 pixels
Height : 798 pixels
Display aspect ratio : 2.40:1
Frame rate : 23.976 fps
Stream size : 5.47 GiB (86%)
Title : Anaconda
Writing library : x264 core 67 r1148M 400740b
Language : English
Audio #1
Format : AC-3
Duration : 1h 29mn
Bit rate mode : Constant
Bit rate : 640 Kbps
Channel(s) : 6 channels
Stream size : 409 MiB (6%)
Title : ENG
Language : English
Audio #2
Format : AC-3
Duration : 1h 29mn
Bit rate mode : Constant
Bit rate : 640 Kbps
Channel(s) : 6 channels
Stream size : 409 MiB (6%)
Title : PL
Language : Polish
Text #1
Language : Polish
Text #2
Language : English


Uwaga! Linki nie zakodowane tylko dla zarejestrowanych użytkowników!

Nie masz konta? Zarejestruj się za darmo!
----------------
Links are not encoded only for registered users only! Plese login or register!

Informacje

Jeżeli chcesz skomentować artykuł musisz być zarejestrowany na stronie.