EXSite.pl - Portal ze wszystkim Mamy tutaj wszystko

NIE MASZ JESZCZE KONTA? ZAREJESTRUJ SIĘ ZA DARMO!   
Przypomnij hasło X

Mucha - The Fly (1986) DUAL.1080p.BluRay.x264-BRY | Lektor PL ..:Up dla EXSite.pl:..

Dodał: djbarney 8 Listopad 2011 10:25


Mucha - The Fly (1986) DUAL.1080p.BluRay.x264-BRY | Lektor PL ..:Up dla EXSite.pl:..

Mucha - The Fly (1986) DUAL.1080p.BluRay.x264-BRY | Lektor PL ..:Up dla EXSite.pl:..

Mucha - The Fly (1986) DUAL.1080p.BluRay.x264-BRY | Lektor PL ..:Up dla EXSite.pl:..
=========================

Oryginalny tytuł: The Fly
Produkcja: USA
Gatunek: Horror, Sci-Fi
Data premiery: 15 sierpnia 1986
Reżyseria: David Cronenberg
Scenariusz: David Cronenberg, Charles Edward Pogue

FDB:
http://fdb.pl/film/2360-mucha

Filmweb:
http://www.filmweb.pl/film?id=7900

IMDB:
http://www.imdb.com/title/tt0091064/


Mucha - The Fly (1986) DUAL.1080p.BluRay.x264-BRY | Lektor PL ..:Up dla EXSite.pl:..
=========================

Seth Brundley projektant systemów komputerowych, poznaje na spotkaniu prasowym Veronicę Quaife, dziennikarkę czasopisma "Particle Magazine". Zaprasza ją do laboratorium prezentując tam dwa sterowane komputerem "telepody", umożliwiające przenoszenie nieożywionych przedmiotów. Dziennikarka informuje swego wydawcę Stathisa Boransa o tych rewelacjach, chcąc opublikować materiał w czasopiśmie. Brundle przekonuje ją, aby wstrzymała się z tym do momentu uko?czenia bada?. Veronica śledzi niepowodzenia Setha z przenoszeniem małpy i nawiązuje romans z naukowcem. Eksprzyjaciel, a obecnie szef Borans próbuje nakłonić Veronicę do powrotu, szantażuje ją możliwością opublikowania pod własnym nazwiskiem zgromadzonych prze nią materiałów. Veronica opuszcza Setha, by stawić czoło swemu wydawcy. Zazdrosny o kochankę Brundle w upojeniu alkoholowym dokonuje teleportacji samego siebie.


Mucha - The Fly (1986) DUAL.1080p.BluRay.x264-BRY | Lektor PL ..:Up dla EXSite.pl:..
=========================

Jeff Goldblum jako Seth Brundle
Geena Davis jako Veronica Ronnie Quaife
John Getz jako Stathis Borans


Mucha - The Fly (1986) DUAL.1080p.BluRay.x264-BRY | Lektor PL ..:Up dla EXSite.pl:..
=========================

Mucha - The Fly (1986) DUAL.1080p.BluRay.x264-BRY | Lektor PL ..:Up dla EXSite.pl:..
Video: MPEG4 Video (H264) 1920x1040 23.98fps [English]
Audio: Dolby AC3 48000Hz stereo 256Kbps [Polish]
Audio: DTS 48000Hz 6ch 1510Kbps [English]
Subtitle: UTF-8 [Polish]
Subtitle: SubStation Alpha [Polish]
Subtitle: SubStation Alpha [English]
Czas: 01:35:39
Źródło: The.Fly.1986.1080p.BluRay.DTS.x264-CtrlHD


Mucha - The Fly (1986) DUAL.1080p.BluRay.x264-BRY | Lektor PL ..:Up dla EXSite.pl:..



Mucha - The Fly (1986) DUAL.1080p.BluRay.x264-BRY | Lektor PL ..:Up dla EXSite.pl:..
Archiwum zawiera 5% dane naprawcze.

Uwaga! Linki nie zakodowane tylko dla zarejestrowanych użytkowników!

Nie masz konta? Zarejestruj się za darmo!
----------------
Links are not encoded only for registered users only! Plese login or register!


Mucha - The Fly (1986) DUAL.1080p.BluRay.x264-BRY | Lektor PL ..:Up dla EXSite.pl:..
Uwaga! Linki nie zakodowane tylko dla zarejestrowanych użytkowników!

Nie masz konta? Zarejestruj się za darmo!
----------------
Links are not encoded only for registered users only! Plese login or register!


Użytkownik VIP

sesquintamUżytkownik

#1 | Dodany: 8 Listopad 2011 10:25

wink
Kurs Pochodne z etrapez [PL] Zobacz!!!
Has?o do plik?w: sisquintam

Linki pad?y? Napisz PW, a zrobie Re-Upload najszybciej jak si? da!
Użytkownik VIP

sisi2006Użytkownik

#2 | Dodany: 8 Listopad 2011 11:04

brawo a w jednym linku brawo
Użytkownik VIP

CrashRedVIP

#3 | Dodany: 8 Listopad 2011 14:17

Format : Matroska
File size : 8.12 GiB
Duration : 1h 35mn
Overall bit rate : 12.2 Mbps
Video
Format/Info : Advanced Video Codec
Format profile : High@L5.1
Duration : 1h 35mn
Bit rate : 10.4 Mbps
Width : 1 920 pixels
Height : 1 040 pixels
Display aspect ratio : 16:9
Frame rate : 23.976 fps
Stream size : 6.78 GiB (83%)
Title : Mucha
Writing library : x264 core 56 svn-680
Language : English
Audio #1
Format : AC-3
Duration : 1h 35mn
Bit rate mode : Constant
Bit rate : 256 Kbps
Channel(s) : 2 channels
Stream size : 175 MiB (2%)
Title : PL
Language : Polish
Audio #2
Format : DTS
Duration : 1h 35mn
Bit rate mode : Constant
Bit rate : 1 510 Kbps
Channel(s) : 6 channels
Stream size : 1.01 GiB (12%)
Title : ENG
Language : English


Źródło: The.Fly.1986.1080p.BluRay.DTS.x264-CtrlHD

Uwaga! Linki nie zakodowane tylko dla zarejestrowanych użytkowników!

Nie masz konta? Zarejestruj się za darmo!
----------------
Links are not encoded only for registered users only! Plese login or register!
Użytkownik VIP

dyskoteka1987Trial Uploader

#4 | Dodany: 8 Listopad 2011 16:04

Mucha to mucha , rok po tym filmie przyszedłem na świat ... 10/10 loler


Użytkownik VIP

djbarneyUżytkownik

#5 | Dodany: 5 Maj 2012 23:23

linki
Na zaczepki idiot?w nie odpowiadam - no bo i po co...
___________________________________________
Użytkownik VIP

H1sVIP Uploader

#6 | Dodany: 29 Grudzień 2015 20:11


The.Fly.1986.MULTi.1080p.BluRay.x264-BRY / Lektor PL

Format...: Matroska at 12,8 Mb/s
Length...: 8,58 GB for 1h 35mn 39s
Video...: AVC at 10,6 Mb/s
Aspect...: 1920x1040 (1.846) at 23.976 fps
Audio.#1..: DTS at 1.509 Kb/s
Infos...: 6 channels, 48,0 KHz
Language...: eng
Audio.#2.. AC-3 at 256 Kb/s
Infos...: 2 channels, 48,0 KHz
Language... pl
Read...: Jacek Brzostyński
Audio.#3.. AC-3 at 192 Kb/s
Infos...: 2 channels, 48,0 KHz
Language... pl
Read...: Lucjan Szołajski

WIELKOŚĆ CAŁOŚCI: 8,66 GB
INFORMACJE EXTRA: Party można pobierać naprzemiennie, Party zawierają dane naprawcze


fileshark.pl:
Uwaga! Linki nie zakodowane tylko dla zarejestrowanych użytkowników!

Nie masz konta? Zarejestruj się za darmo!
----------------
Links are not encoded only for registered users only! Plese login or register!


rapidu.net:
Uwaga! Linki nie zakodowane tylko dla zarejestrowanych użytkowników!

Nie masz konta? Zarejestruj się za darmo!
----------------
Links are not encoded only for registered users only! Plese login or register!


Moje Uploady:
KLIK!

Informacje

Jeżeli chcesz skomentować artykuł musisz być zarejestrowany na stronie.