EXSite.pl - Portal ze wszystkim Mamy tutaj wszystko

NIE MASZ JESZCZE KONTA? ZAREJESTRUJ SIĘ ZA DARMO!   
Przypomnij hasło X

Anakonda - Anaconda (1997) DUAL.1080p.BluRay.x264-BRY | Lektor PL ..:Up dla EXSite.pl:..

Dodał: djbarney 9 Listopad 2011 15:50



Anakonda - Anaconda (1997) DUAL.1080p.BluRay.x264-BRY | Lektor PL ..:Up dla EXSite.pl:..

Anakonda - Anaconda (1997) DUAL.1080p.BluRay.x264-BRY | Lektor PL ..:Up dla EXSite.pl:..
=========================

Oryginalny tytuł: Anaconda
Produkcja: Brazylia, Peru, USA
Gatunek: Horror, Przygodowy
Data premiery: 11 kwietnia 1997
Reżyseria: Luis Llosa
Scenariusz: Jack Epps Jr., Hans Bauer, Jim Cash

FDB:
http://fdb.pl/film/2194-anakonda

Filmweb:
http://www.filmweb.pl/film?id=568

IMDB:
http://www.imdb.com/title/tt0118615/


Anakonda - Anaconda (1997) DUAL.1080p.BluRay.x264-BRY | Lektor PL ..:Up dla EXSite.pl:..
=========================

Ekipa filmowa wybiera się na wyprawę Amazonką, aby sfilmować zwyczaje pewnego tajemniczego india?skiego plemienia. Po drodze spotykają mężczyznę - Paula (Jon Voight), którego statek ugrzązł na mieliźnie. Obiecuje on im doprowadzenie do wioski Indian. Niestety powodzenie wyprawy szybko staje pod znakiem zapytania. Jeden z uczestników zostaje użądlony przez osę wodną i trzeba go jak najprędzej odwieźć do cywilizowanego szpitala. Na swojej drodze napotykają tamę. Przy jej wysadzaniu beczki z paliwem spadają z pokładu. Zatrzymują się przy opuszczonym wraku z nadzieją znalezienia paliwa do dalszej drogi. Nie znajdują go, a kapitan statku ginie niepostrzeżenie. Paul przynosi skrzynię ze skórami wielkich węży i sprzętem do polowania na anakondy. Okazuje się on łowcą tych zwierząt, terroryzuje załogę i rozpoczyna polowanie. Od tej pory gigantyczny wąż będzie towarzyszył bohaterom przez cały czas. Członkowie ekipy giną po kolei, ale niektórym udaje się przetrwać w dżungli. Będą musieli stoczyć walkę nie tylko z człowiekiem, ale i anakondą...


Anakonda - Anaconda (1997) DUAL.1080p.BluRay.x264-BRY | Lektor PL ..:Up dla EXSite.pl:..
=========================

Jennifer Lopez jako Terri Flores
Ice Cube jako Danny Rich
Jon Voight jako Paul Sarone
Eric Stoltz jako Dr. Steven Cale
Jonathan Hyde jako Warren Westridge
Owen Wilson jako Gary Dixon
Kari Wuhrer jako Denise Kalber
Vincent Castellanos jako Mateo
Danny Trejo jako Poacher


Anakonda - Anaconda (1997) DUAL.1080p.BluRay.x264-BRY | Lektor PL ..:Up dla EXSite.pl:..
=========================

Anakonda - Anaconda (1997) DUAL.1080p.BluRay.x264-BRY | Lektor PL ..:Up dla EXSite.pl:..
Video: MPEG4 Video (H264) 1920x798 23.98fps [English]
Audio: Dolby AC3 48000Hz 6ch 640Kbps [English]
Audio: Dolby AC3 48000Hz 6ch 640Kbps [Polish]
Subtitle: UTF-8 [Polish]
Subtitle: UTF-8 [English]
Czas: 01:29:20
Źródło: Anaconda.1997.1080p.BluRay.x264-CtrlHD


Anakonda - Anaconda (1997) DUAL.1080p.BluRay.x264-BRY | Lektor PL ..:Up dla EXSite.pl:..



Anakonda - Anaconda (1997) DUAL.1080p.BluRay.x264-BRY | Lektor PL ..:Up dla EXSite.pl:..
Archiwum zawiera 5% dane naprawcze.
Anakonda - Anaconda (1997) DUAL.1080p.BluRay.x264-BRY | Lektor PL ..:Up dla EXSite.pl:..
Anakonda - Anaconda (1997) DUAL.1080p.BluRay.x264-BRY | Lektor PL ..:Up dla EXSite.pl:..Anakonda - Anaconda (1997) DUAL.1080p.BluRay.x264-BRY | Lektor PL ..:Up dla EXSite.pl:..Anakonda - Anaconda (1997) DUAL.1080p.BluRay.x264-BRY | Lektor PL ..:Up dla EXSite.pl:..
Anakonda - Anaconda (1997) DUAL.1080p.BluRay.x264-BRY | Lektor PL ..:Up dla EXSite.pl:..Anakonda - Anaconda (1997) DUAL.1080p.BluRay.x264-BRY | Lektor PL ..:Up dla EXSite.pl:..Anakonda - Anaconda (1997) DUAL.1080p.BluRay.x264-BRY | Lektor PL ..:Up dla EXSite.pl:..
Uwaga! Linki nie zakodowane tylko dla zarejestrowanych użytkowników!

Nie masz konta? Zarejestruj się za darmo!
----------------
Links are not encoded only for registered users only! Plese login or register!


Użytkownik VIP

CrashRedVIP

#1 | Dodany: 2 Grudzień 2011 13:43

Anakonda / Anaconda (1997) DUAL.1080p.BluRay.x264-BRY | Lektor PL
Format : Matroska
File size : 6.40 GiB
Duration : 1h 29mn
Overall bit rate : 10.3 Mbps
Movie name : Anaconda.1997.DUAL.1080p.BluRay.x264-BRY
Video
Format/Info : Advanced Video Codec
Format profile : High@L4.1
Duration : 1h 29mn
Bit rate : 8 972 Kbps
Width : 1 920 pixels
Height : 798 pixels
Display aspect ratio : 2.40:1
Frame rate : 23.976 fps
Stream size : 5.47 GiB (86%)
Title : Anaconda
Writing library : x264 core 67 r1148M 400740b
Language : English
Audio #1
Format : AC-3
Duration : 1h 29mn
Bit rate mode : Constant
Bit rate : 640 Kbps
Channel(s) : 6 channels
Stream size : 409 MiB (6%)
Title : ENG
Language : English
Audio #2
Format : AC-3
Duration : 1h 29mn
Bit rate mode : Constant
Bit rate : 640 Kbps
Channel(s) : 6 channels
Stream size : 409 MiB (6%)
Title : PL
Language : Polish
Text #1
Language : Polish
Text #2
Language : English


Uwaga! Linki nie zakodowane tylko dla zarejestrowanych użytkowników!

Nie masz konta? Zarejestruj się za darmo!
----------------
Links are not encoded only for registered users only! Plese login or register!
Użytkownik VIP

djbarneyUżytkownik

#2 | Dodany: 5 Maj 2012 23:22

linki
Na zaczepki idiot?w nie odpowiadam - no bo i po co...
___________________________________________

Informacje

Jeżeli chcesz skomentować artykuł musisz być zarejestrowany na stronie.