EXSite.pl - Portal ze wszystkim Mamy tutaj wszystko

NIE MASZ JESZCZE KONTA? ZAREJESTRUJ SIĘ ZA DARMO!   
Przypomnij hasło X

Ostatni Skaut - The Last Boy Scout (1991) DUAL.720p.BluRay.x264-BRY | Lektor PL ..:Up dla EXSite.pl:..

Dodał: djbarney 9 Listopad 2011 15:50



Ostatni Skaut - The Last Boy Scout (1991) DUAL.720p.BluRay.x264-BRY | Lektor PL ..:Up dla EXSite.pl:..

Ostatni Skaut - The Last Boy Scout (1991) DUAL.720p.BluRay.x264-BRY | Lektor PL ..:Up dla EXSite.pl:..
=========================

Oryginalny tytuł: The Last Boy Scout
Produkcja: USA
Gatunek: Sensacyjny
Data premiery: 13 grudnia 1991
Reżyseria: Tony Scott
Scenariusz: Shane Black

FDB:
http://fdb.pl/film/10455-ostatni-skaut

Filmweb:
http://www.filmweb.pl/film?id=8430

IMDB:
http://www.imdb.com/title/tt0102266/


Ostatni Skaut - The Last Boy Scout (1991) DUAL.720p.BluRay.x264-BRY | Lektor PL ..:Up dla EXSite.pl:..
=========================

Bruce Willis i Damon Wayans grają detektywów, którzy prowadzą na własną rękę śledztwo w sprawie tajemniczego morderstwa. Trafiają na ślad afery związanej ze środowiskiem zawodowego futbolu. Na jaw wychodzi fakt przekupstwa znanych polityków przez właściciela drużyny piłkarskiej. Od tej pory ich jedynym zadaniem jest przeżyć! Ostatniego Skauta zrealizowali specjaliści od filmów akcji: reżyser Tony Scott (Top Gun), producent Joel Silver (Szklana Pułapka, Zabójcza Bro?, Człowiek Demolka). Całość doprawili szczyptą zwariowanego humoru.


Ostatni Skaut - The Last Boy Scout (1991) DUAL.720p.BluRay.x264-BRY | Lektor PL ..:Up dla EXSite.pl:..
=========================

Bruce Willis jako Joe Hallenbeck
Damon Wayans jako Jimmy Dix
Chelsea Field jako Sarah Hallenbeck
Noble Willingham jako Sheldon Marcone
Taylor Negron jako Milo
Danielle Harris jako Darian Hallenbeck
Halle Berry jako Cory


Ostatni Skaut - The Last Boy Scout (1991) DUAL.720p.BluRay.x264-BRY | Lektor PL ..:Up dla EXSite.pl:..
=========================

Ostatni Skaut - The Last Boy Scout (1991) DUAL.720p.BluRay.x264-BRY | Lektor PL ..:Up dla EXSite.pl:..
Video: MPEG4 Video (H264) 1280x536 23.98fps [English]
Audio: Dolby AC3 48000Hz 6ch 640Kbps [Polish]
Audio: DTS 48000Hz 6ch 1510Kbps [English]
Subtitle: UTF-8 [English]
Subtitle: UTF-8 [Polish]
Czas: 01:45:25
Źródło: The.Last.Boy.Scout.1991.720p.BluRay.x264-CiNEFiLE


Ostatni Skaut - The Last Boy Scout (1991) DUAL.720p.BluRay.x264-BRY | Lektor PL ..:Up dla EXSite.pl:..



Ostatni Skaut - The Last Boy Scout (1991) DUAL.720p.BluRay.x264-BRY | Lektor PL ..:Up dla EXSite.pl:..
Archiwum zawiera 5% dane naprawcze.
Ostatni Skaut - The Last Boy Scout (1991) DUAL.720p.BluRay.x264-BRY | Lektor PL ..:Up dla EXSite.pl:..
Ostatni Skaut - The Last Boy Scout (1991) DUAL.720p.BluRay.x264-BRY | Lektor PL ..:Up dla EXSite.pl:..Ostatni Skaut - The Last Boy Scout (1991) DUAL.720p.BluRay.x264-BRY | Lektor PL ..:Up dla EXSite.pl:..Ostatni Skaut - The Last Boy Scout (1991) DUAL.720p.BluRay.x264-BRY | Lektor PL ..:Up dla EXSite.pl:..
Ostatni Skaut - The Last Boy Scout (1991) DUAL.720p.BluRay.x264-BRY | Lektor PL ..:Up dla EXSite.pl:..Ostatni Skaut - The Last Boy Scout (1991) DUAL.720p.BluRay.x264-BRY | Lektor PL ..:Up dla EXSite.pl:..Ostatni Skaut - The Last Boy Scout (1991) DUAL.720p.BluRay.x264-BRY | Lektor PL ..:Up dla EXSite.pl:..
Uwaga! Linki nie zakodowane tylko dla zarejestrowanych użytkowników!

Nie masz konta? Zarejestruj się za darmo!
----------------
Links are not encoded only for registered users only! Plese login or register!


Użytkownik VIP

CrashRedVIP

#1 | Dodany: 2 Grudzień 2011 15:17

Ostatni Skaut / The Last Boy Scout (1991) DUAL.720p.BluRay.x264-BRY |

Format : Matroska
File size : 4.84 GiB
Duration : 1h 45mn
Overall bit rate : 6 576 Kbps
Movie name : The.Last.Boy.Scout.1991.DUAL.720p.BluRay.x264-BRY
Video
Format/Info : Advanced Video Codec
Format profile : High@L3.1
Duration : 1h 45mn
Bit rate : 4 429 Kbps
Width : 1 280 pixels
Height : 536 pixels
Display aspect ratio : 2.35:1
Frame rate : 23.976 fps
Stream size : 3.16 GiB (65%)
Title : Ostatni Skaut
Writing library : x264 core 98 r1649 c54c47d
Language : English
Audio #1
Format : AC-3
Duration : 1h 45mn
Bit rate mode : Constant
Bit rate : 640 Kbps
Channel(s) : 6 channels
Stream size : 483 MiB (10%)
Title : PL
Language : Polish
Audio #2
Format : DTS
Duration : 1h 45mn
Bit rate mode : Constant
Bit rate : 1 510 Kbps
Channel(s) : 6 channels
Stream size : 1.11 GiB (23%)
Title : ENG
Language : English
Text #1
Language : English
Text #2
Language : Polish


Uwaga! Linki nie zakodowane tylko dla zarejestrowanych użytkowników!

Nie masz konta? Zarejestruj się za darmo!
----------------
Links are not encoded only for registered users only! Plese login or register!
Użytkownik VIP

qgrzegorzGość

#2 | Dodany: 17 Luty 2012 14:01

Ostatni Skaut / The.Last.Boy.Scout.1991.PL.1080p.BluRay.X264.AC3-ViPERS

Dane Techniczne:
General           : The.Last.Boy.Scout.1991.PL.1080p.BluRay.x264-ViPERS.mkv
Format            : Matroska at 9.720 Kb/s
Length            : 7,16 GB for 1h 45 min. 24s 986ms

Video #0          : AVC at 9.282 Kb/s
Aspect            : 1920 x 800 (2.400) at 23.976 fps

Audio #0          : AC-3 at 448 Kb/s
Infos             : 6 kanałów, 48,0 KHz
Language          : pl

INFO Lektor: lektor profesjonalny
Źródło obrazu: *Blu-ray/DVD*


Opis uploadu:
wielkość całości: 7,95 GB
rodzaj kompresji: .rar
zawartość uploadu: plik .mkv
wersja językowa: PL
Dane naprawcze:10%


Download:
Uwaga! Linki nie zakodowane tylko dla zarejestrowanych użytkowników!

Nie masz konta? Zarejestruj się za darmo!
----------------
Links are not encoded only for registered users only! Plese login or register!


HASŁO:

filmik

Martwe linki.Pisz na PW zrobie reupload.
Użytkownik VIP

kpt.hunterUżytkownik

#3 | Dodany: 17 Marzec 2012 10:31

lol

Informacje

Jeżeli chcesz skomentować artykuł musisz być zarejestrowany na stronie.