EXSite.pl - Portal ze wszystkim Mamy tutaj wszystko

NIE MASZ JESZCZE KONTA? ZAREJESTRUJ SIĘ ZA DARMO!   
Przypomnij hasło X

Bliskie spotkania trzeciego stopnia / Close Encounters of the Third Kind C.E. (1977) PL.BluRay.720p.AC3.x264-DX Lektor PL

Dodał: torpedomax 9 Listopad 2011 19:19


Bliskie spotkania trzeciego stopnia / Close Encounters of the Third Kind (Collectors Edition) (1977) BluRay 720p AC3 x264-DX Lektor PL

Bliskie spotkania trzeciego stopnia / Close Encounters of the Third Kind C.E. (1977) PL.BluRay.720p.AC3.x264-DX Lektor PL

czas trwania: 2 godz. 15 min.
gatunek: Dramat, Przygodowy, Sci-Fi
premiera: 15 listopada 1977 (świat) 1977-11-15
reżyseria: Steven Spielberg
scenariusz: Hal Barwood, Jerry Belson

Fantastyczna epopeja Steven Spielberg. Ziemię odwiedzają istoty z kosmosu. Informacje o swym przybyciu przekazują telepatycznie. Opętany wizją nieznanej góry Roy Neary czyni wszystko, by do niej dotrzeć i spotkać się z przybyszami. Nie bacząc na piętrzące się trudności wraz z poszukującą uprowadzonego przez UFO synka kobietą osiągają cel - są obecni podczas lądowania pojazdu Obcych u stóp charakterystycznej góry w stanie Wyoming. Obcy okazują się pokojowo nastawionymi istotami porozumiewającymi się z ludźmi za pomocą dźwięków, które układają się w muzyczne frazy. Oscar za zdjęcia, nominacja za reżyserię i za najlepszą drugoplanową rolę kobiecą dla Melindy Dillon.

General


Bliskie spotkania trzeciego stopnia / Close Encounters of the Third Kind C.E. (1977) PL.BluRay.720p.AC3.x264-DX Lektor PLBliskie spotkania trzeciego stopnia / Close Encounters of the Third Kind C.E. (1977) PL.BluRay.720p.AC3.x264-DX Lektor PL

Uwaga! Linki nie zakodowane tylko dla zarejestrowanych użytkowników!

Nie masz konta? Zarejestruj się za darmo!
----------------
Links are not encoded only for registered users only! Plese login or register!


Użytkownik VIP

torpedomaxUżytkownik

#1 | Dodany: 9 Listopad 2011 19:49

Brakujący part na Wupload :

Uwaga! Linki nie zakodowane tylko dla zarejestrowanych użytkowników!

Nie masz konta? Zarejestruj się za darmo!
----------------
Links are not encoded only for registered users only! Plese login or register!

Resident Evil ( 2002 - 2012 ) Kolekcja Multi.BluRay.1080p.x264.DTS-HDMA.DTS.AC3-DX Lektor i Napisy PL

http://www.exsite.pl/filmy_video_movies/filmy-hd-dvd5-dvd9/789890-kolekcja-resident-evil-2002-2012-bluray1080pduallaudiodtsac3x264-dx-engpl-napisy-pl.html

Gwiezdne wojny / Star Wars (1977-2005) THE.COMPLETE.SAGA.MULTi.HQ.1080p.BluRay.x264.DTS-HDMA.DTS.AC3-DX
LEKTOR, DUBBING i NAPISY PL


http://wklej.to/iE7tg
Użytkownik VIP

dyskoteka1987Trial Uploader

#2 | Dodany: 9 Listopad 2011 23:52

thx
Użytkownik VIP

webmaestroUżytkownik

#3 | Dodany: 11 Listopad 2011 12:59

Dzięks!
Użytkownik VIP

CrashRedVIP

#4 | Dodany: 30 Grudzień 2011 14:33


Complete name : Close.Encounters.of.the.Third.Kind.Collectors.Edition.1977.PL.720p.BluRay x264-DX.mkv
Format : Matroska
File size : 3.99 GiB
Duration : 2h 17mn
Overall bit rate : 4 162 Kbps
Video #1
Format : AVC
Format/Info : Advanced Video Codec
Format profile : Main@L3.1
Duration : 2h 17mn
Bit rate : 3 439 Kbps
Nominal bit rate : 3 533 Kbps
Width : 1 280 pixels
Height : 544 pixels
Display aspect ratio : 2.35:1
Frame rate : 23.976 fps
Resolution : 24 bits
Bits/(Pixel*Frame) : 0.206
Stream size : 3.29 GiB (83%)
Writing library : x264 core 112
Language : English
Audio #2
ID : 2
Codec ID : A_AC3
Duration : 2h 17mn
Bit rate : 640 Kbps
Channel(s) : 6 channels
Stream size : 628 MiB (15%)
Langue : Polish


Uwaga! Linki nie zakodowane tylko dla zarejestrowanych użytkowników!

Nie masz konta? Zarejestruj się za darmo!
----------------
Links are not encoded only for registered users only! Plese login or register!
Użytkownik VIP

bartex9Użytkownik

#5 | Dodany: 13 Kwiecień 2012 23:52

Proszę o re-upload
Użytkownik VIP

mtk_86Użytkownik

#6 | Dodany: 14 Lipiec 2012 13:08

linki wygasly recourse

Informacje

Jeżeli chcesz skomentować artykuł musisz być zarejestrowany na stronie.