EXSite.pl - Portal ze wszystkim Mamy tutaj wszystko

NIE MASZ JESZCZE KONTA? ZAREJESTRUJ SIĘ ZA DARMO!   
Przypomnij hasło X

Kung Fu Panda 2 (2011) PL.DUB.720p.BluRay.x264-J25 / DUBBiNG PL +m720p

Dodał: joseph0025 12 Listopad 2011 21:11


Kung Fu Panda 2 (2011)

PL.DUB.720p.BluRay.x264-J25 / DUBBiNG PL


Kung Fu Panda 2 (2011) PL.DUB.720p.BluRay.x264-J25 / DUBBiNG PL  +m720p

Kung Fu Panda 2 (2011) PL.DUB.720p.BluRay.x264-J25 / DUBBiNG PL  +m720p


iNFO


reżyseria: Jennifer Yuh
scenariusz: Jonathan Aibel, Glenn Berger
premiera: 27 maja 2011 (Polska) 26 maja 2011 (świat)
produkcja: USA
gatunek: Animacja, Familijny, Komedia, Przygodowy

Komedia twórców hitów “Shrek”, “Madagaskar” i “Kung Fu Panda”. Spełniły się marzenia Po i jest on teraz Smoczym Wojownikiem. Wraz z przyjaciółmi, mistrzami kung fu, czyli Potężną Piątką: Tygrysicą, Żurawiem, Modliszką, Żmiją i Małpą, chroni Dolinę Spokoju. Ale nowe wspaniałe życie Po jest zagrożone. Oto straszliwy złoczy?ca planuje wykorzystać pewną sekretną bro?, by podbić Chiny i zniszczyć kung fu. Po i Potężna Piątka muszą wyruszyć w podróż przez kraj, aby stawić czoła zagrożeniu i zniszczyć zło. Ale jak Po pokona bro?, zdolną pokonać kung fu? Musi spojrzeć wstecz i odkryć tajemnicę swego pochodzenia. Tylko wtedy będzie umiał uwolnić siłę, której tak bardzo potrzebuje do zwycięstwa.



DANE TECHNiCZNE:
RELEASE:  Kung.Fu.Panda.2.2011.PL.DUB.720p.BluRay.x264-J25

Format            : Matroska at 3.846 Kb/s
Length            : 2,33 GB for 1h 26 min. 41s 824ms

Video #0          : AVC at 3.258 Kb/s
Aspect            : 1280 x 544 (2.353) at 25.000 fps

Audio #0          : AC-3 at 448 Kb/s
Infos             : 6 kanałów, 48,0 KHz
Language          : pl

SOURCE: FLAWL3SS / DS (thx!)


OPiS UPLOADU:
Wielkość Uploadu: 2,33 GB
Rodzaj Kompresji: RAR
Zawartość Uploadu: Plik .MKV
Wersja Językowa: POLSKi DUBBiNG
Dane Naprawcze: BRAK
Hasło: BRAK


SCREENY



Kung Fu Panda 2 (2011) PL.DUB.720p.BluRay.x264-J25 / DUBBiNG PL  +m720p Kung Fu Panda 2 (2011) PL.DUB.720p.BluRay.x264-J25 / DUBBiNG PL  +m720p Kung Fu Panda 2 (2011) PL.DUB.720p.BluRay.x264-J25 / DUBBiNG PL  +m720p Kung Fu Panda 2 (2011) PL.DUB.720p.BluRay.x264-J25 / DUBBiNG PL  +m720p


POBiERZ / DOWNLOAD

PARTY PO 800MB | MOŻNA POBiERAĆ NA PRZEMiAN | BEZ HASŁA


Uwaga! Linki nie zakodowane tylko dla zarejestrowanych użytkowników!

Nie masz konta? Zarejestruj się za darmo!
----------------
Links are not encoded only for registered users only! Plese login or register!




WERSJA m720p PL


DANE TECHNiCZNE:

Format            : Matroska at 2.405 Kb/s
Length            : 1,46 GB for 1h 26 min. 41s 760ms

Video #0          : AVC at 1.967 Kb/s
Aspect            : 1280 x 544 (2.353) at 25.000 fps

Audio #0          : AC-3 at 448 Kb/s
Infos             : 6 kanałów, 48,0 KHz
Language          : pl



POBiERZ / DOWNLOAD

PARTY PO 800MB | MOŻNA POBiERAĆ NA PRZEMiAN | BEZ HASŁA


Uwaga! Linki nie zakodowane tylko dla zarejestrowanych użytkowników!

Nie masz konta? Zarejestruj się za darmo!
----------------
Links are not encoded only for registered users only! Plese login or register!




Użytkownik VIP

joseph0025VIP Uploader

#1 | Dodany: 12 Listopad 2011 07:44

smile
:)
Użytkownik VIP

1Misiek1VIP

#2 | Dodany: 12 Listopad 2011 08:36

Wielkie dzięki ok
Użytkownik VIP

B89VIP Uploader

#3 | Dodany: 12 Listopad 2011 10:00

brawo

brawo
Użytkownik VIP

mat_marVIP

#4 | Dodany: 13 Listopad 2011 06:19

Kung Fu Panda 2 (2011) DVD5 Dubbing PL

FULL DVD
*ORYGINALNY DUBBING*




Video: DVD5 PAL
Menu: TAK
Audio Language: Angielski 5.1, Polski Dubbing 5.1
Subtitles: angielskie, polskie
Extras: NIE
Format: 16/9
Przepływowość bitów: 6,2 Mbps
Kopia 1:1: NIE
Rozmiar: 4.33 GB



.:: DOWNLOAD ::.

# DOWNLOAD LINK'S - 400MB PART'S #
Uwaga! Linki nie zakodowane tylko dla zarejestrowanych użytkowników!

Nie masz konta? Zarejestruj się za darmo!
----------------
Links are not encoded only for registered users only! Plese login or register!

No pass
NAJWI?KSZY ZBI?R FILM?W FULL DVD | HD

<<KLIK>>


Użytkownik VIP

marioman3Użytkownik

#5 | Dodany: 13 Listopad 2011 16:49

Błagam o 1080p.
Użytkownik VIP

CrashRedVIP

#6 | Dodany: 15 Listopad 2011 17:16

[center][size=2]Kung Fu Panda 2 (2011) PLDUB.Bluray.x264.DTS.Crash / [DUAL AUDIO] POLSKI DUBBING[/size]

Format : Matroska
File size : 6.50 GiB
Duration : 1h 30mn
Overall bit rate : 10.3 Mbps
Video
ID : 1
Format/Info : Advanced Video Codec
Format profile : High@L4.1
Duration : 1h 30mn
Bit rate : 8 135 Kbps
Width : 1 920 pixels
Height : 816 pixels
Display aspect ratio : 2.35:1
Frame rate : 23.976 fps
Stream size : 5.01 GiB (77%)
Writing library : x264 core 115 r1995 c1e60b9
Language : English
Audio #
Format : DTS
Duration : 1h 30mn
Bit rate mode : Constant
Bit rate : 1 510 Kbps
Channel(s) : 6 channels
Channel positions : Front: L C R, Side: L R, LFE
Stream size : 976 MiB (15%)
Language : English
Audio #2
Format : AC-3
Duration : 1h 30mn
Bit rate mode : Constant
Bit rate : 640 Kbps
Channel(s) : 6 channels
Stream size : 414 MiB (6%)
Title : Crash-Polski
S.v=HDChina

Uwaga! Linki nie zakodowane tylko dla zarejestrowanych użytkowników!

Nie masz konta? Zarejestruj się za darmo!
----------------
Links are not encoded only for registered users only! Plese login or register!
Użytkownik VIP

xxrasherxxUżytkownik

#7 | Dodany: 30 Czerwiec 2012 11:13

Kung Fu Panda 2 (2011) 720p Dual Audio [Dubbing PL/ENG] BluRay.x264


Dane techniczne:
Format : Matroska
File size : 4.65 GiB
Duration : 1h 30mn
Overall bit rate : 7 367 Kbps

Video
ID : 1
Format : AVC
Format/Info : Advanced Video Codec
Bit rate : 6 277 Kbps
Width : 1 280 pixels
Height : 544 pixels
Display aspect ratio : 2.35:1
Frame rate : 23.976 fps

Audio #1
ID : 2
Format : AC-3
Bit rate : 448 Kbps
Channel(s) : 6 channels
Language : Polish

Audio #2
ID : 3
Format : AC-3
Bit rate mode : Constant
Bit rate : 640 Kbps
Channel(s) : 6 channels
Language : English

Text
ID : 4
Format : UTF-8
Language : Polish


Opis uploadu:
Wielkość całości: 4.65 GB
Rodzaj kompresji: rar
Zawartość Uploadu: .mkv
Wersja językowa: PL/Eng
Dane naprawcze: brak


Download // NO PASS
http://azushare.net/OfS1r7fg84RpEWAC/Kung.Fu.Panda.2.720p.part6.rar
http://azushare.net/D6xEPncArlsU8GEF/Kung.Fu.Panda.2.720p.part5.rar
http://azushare.net/Fas0YYBJ0fH1KzNN/Kung.Fu.Panda.2.720p.part4.rar
http://azushare.net/2Lzyn0CrwOjeWDF7/Kung.Fu.Panda.2.720p.part3.rar
http://azushare.net/luTGbT1HUdj2CXnT/Kung.Fu.Panda.2.720p.part2.rar
http://azushare.net/DPuCuYELXcN7aE2X/Kung.Fu.Panda.2.720p.part1.rar

MIRROR
http://www.hellupload.com/7u5zh0kwpa3f/Kung_Fu_Panda_2_720p.part1.rar.html
http://www.hellupload.com/k204ts2gfe6v/Kung_Fu_Panda_2_720p.part2.rar.html
http://www.hellupload.com/v2cqg2mxxd1n/Kung_Fu_Panda_2_720p.part3.rar.html
http://www.hellupload.com/14g6rfgwqivf/Kung_Fu_Panda_2_720p.part4.rar.html
http://www.hellupload.com/wyt1cy5kgek4/Kung_Fu_Panda_2_720p.part5.rar.html
http://www.hellupload.com/6o43hz036ge8/Kung_Fu_Panda_2_720p.part6.rar.html

Informacje

Jeżeli chcesz skomentować artykuł musisz być zarejestrowany na stronie.