EXSite.pl - Portal ze wszystkim Mamy tutaj wszystko

NIE MASZ JESZCZE KONTA? ZAREJESTRUJ SIĘ ZA DARMO!   
Przypomnij hasło X

śpiąca Królewna / Sleeping Beauty (1959) PLDUB.BluRay.m720p.AC3.x264-DX Dubbing PL

Dodał: torpedomax 12 Listopad 2011 11:00


śpiąca Królewna / Sleeping Beauty (1959) BluRay m-720p AC3 x264-DX Dubbing PL

śpiąca Królewna / Sleeping Beauty (1959) PLDUB.BluRay.m720p.AC3.x264-DX Dubbing PL

czas trwania: 1 godz. 15 min.
gatunek: Animacja, Musical, Baś?
premiera: 18 sierpnia 1995 (Polska) 1995-08-18 29 stycznia 1959 (świat) 1959-01-29
reżyseria: Clyde Geronimi
scenariusz: Roy M. Brewer Sr., Donald Halliday

W wielkim królestwie królewskiej parze narodziła się córeczka, której nadali imię Aurora. Radości rodziców nie było ko?ca. Podczas balu z powodu narodzin, została wygnana zła wiedźma, która także chciała zobaczyć przyszłą królową. Upokorzona, rzuca na Aurorę klątwę - w dniu 16 urodzin ukłuje się wrzecionem i zapadnie w głęboki sen. Król i królowa nakazali spalić wszystkie wrzeciona w królestwie. Mija 16 lat. Trzy dobre wróżki chroniły Aurorę przed złą wiedźmą, ale ta ją znalazła i nakłoniła do użycia wrzeciona. Razem z całym królestwem księżniczka zapadła w głęboki sen. Przepowiednia głosi, że tylko młody książe Filip, pocałując Aurorę, złamie klątwę. Niestety, wiedźma zamyka go w lochu. Jedyną pomocą Filipa i królestwa są trzy dobre wróżki które chroniły Aurorę

General


śpiąca Królewna / Sleeping Beauty (1959) PLDUB.BluRay.m720p.AC3.x264-DX Dubbing PLśpiąca Królewna / Sleeping Beauty (1959) PLDUB.BluRay.m720p.AC3.x264-DX Dubbing PL
śpiąca Królewna / Sleeping Beauty (1959) PLDUB.BluRay.m720p.AC3.x264-DX Dubbing PLśpiąca Królewna / Sleeping Beauty (1959) PLDUB.BluRay.m720p.AC3.x264-DX Dubbing PL

Uwaga! Linki nie zakodowane tylko dla zarejestrowanych użytkowników!

Nie masz konta? Zarejestruj się za darmo!
----------------
Links are not encoded only for registered users only! Plese login or register!


Użytkownik VIP

CrashRedVIP

#1 | Dodany: 12 Listopad 2011 13:47

Format : Matroska
File size : 3.61 GiB
Duration : 1h 31mn
Overall bit rate : 5 626 Kbps
Video
ID : 1
Format : AVC
Format/Info : Advanced Video Codec
Format profile : High@L4.1
Duration : 1h 31mn
Bit rate : 5 307 Kbps
Width : 1 920 pixels
Height : 1 080 pixels
Display aspect ratio : 16:9
Frame rate : 23.976 fps
Stream size : 3.33 GiB (92%)
Writing library : x264 core 104 r1713 c276662
Language : English
Audio
Format : AC-3
Duration : 1h 31mn
Bit rate mode : Constant
Bit rate : 320 Kbps
Channel(s) : 2 channels
Stream size : 210 MiB (6%)
Language : Polish



Piękna i Bestia / Beauty and the Beast (1991) PL.1080p.BluRay.x264 / POLSKI DUBBING

Uwaga! Linki nie zakodowane tylko dla zarejestrowanych użytkowników!

Nie masz konta? Zarejestruj się za darmo!
----------------
Links are not encoded only for registered users only! Plese login or register!
Użytkownik VIP

bodzio9Uploader

#2 | Dodany: 10 Maj 2012 07:26

śpiąca królewna / Sleeping Beauty (1959)




Uwaga! Linki nie zakodowane tylko dla zarejestrowanych użytkowników!

Nie masz konta? Zarejestruj się za darmo!
----------------
Links are not encoded only for registered users only! Plese login or register!


hasło : up4Audioksiazki!

Informacje

Jeżeli chcesz skomentować artykuł musisz być zarejestrowany na stronie.