EXSite.pl - Portal ze wszystkim Mamy tutaj wszystko

NIE MASZ JESZCZE KONTA? ZAREJESTRUJ SIĘ ZA DARMO!   
Przypomnij hasło X

Stuart Malutki / Stuart Little (1999) PL.BluRay.1080p.x264-CHD POLSKI DUBBING

Dodał: CrashRed 12 Listopad 2011 14:10


Stuart Malutki / Stuart Little (1999) PL.BluRay.1080p.x264-CHD POLSKI DUBBING

Stuart Malutki / Stuart Little (1999) PL.BluRay.1080p.x264-CHD POLSKI DUBBING

Stuart Malutki / Stuart Little (1999) PL.BluRay.1080p.x264-CHD POLSKI DUBBING
http://www.filmweb.pl/film/Stuart+Malutki-1999-860

czas trwania: 1 godz. 24 min.
gatunek: Familijny, Fantasy, Komedia, Przygodowy
premiera: 24 marca 2000 (Polska) 2000-03-24 5 grudnia 1999 (świat) 1999-12-05
reżyseria: Rob Minkoff
scenariusz: Greg Brooker, M. Night Shyamalan

Film zrealizowany techniką kombinowaną. Rodzina mieszkająca w Nowym Jorku pragnie adoptować dziecko. Matka i ojciec jadą do sieroci?ca na rozmową wstępną, zwracają uwagę na mieszkającą tam mysz. Postanawiają dokonać oficjalnego usynowienia zwierzaka, co wywołuje sprzeciw innych zwierząt domowych.


Format : Matroska
File size : 7.83 GiB
Duration : 1h 24mn
Overall bit rate : 13.2 Mbps
Video
Format : AVC
Format profile : High@L4.1
Duration : 1h 24mn
Bit rate : 11.1 Mbps
Width : 1 920 pixels
Height : 1 038 pixels
Display aspect ratio : 1.850
Frame rate : 23.976 fps
Stream size : 6.40 GiB (82%)
Writing library : x264 core 115 r2008+578 3864dbe
Language : English
Audio #1
Format : AC-3
Duration : 1h 24mn
Bit rate mode : Constant
Bit rate : 640 Kbps
Channel(s) : 6 channels
Stream size : 387 MiB (5%)
Language : Polish
Audio #2
Format : DTS
Duration : 1h 24mn
Bit rate mode : Constant
Bit rate : 1 510 Kbps
Channel(s) : 6 channels
Stream size : 914 MiB (11%)
Language : English
Text
Language : Polish



Stuart Malutki / Stuart Little (1999) PL.BluRay.1080p.x264-CHD POLSKI DUBBING
Uwaga! Linki nie zakodowane tylko dla zarejestrowanych użytkowników!

Nie masz konta? Zarejestruj się za darmo!
----------------
Links are not encoded only for registered users only! Plese login or register!



Użytkownik VIP

CrashRedVIP

#1 | Dodany: 12 Listopad 2011 14:10

ok

Informacje

Jeżeli chcesz skomentować artykuł musisz być zarejestrowany na stronie.