EXSite.pl - Portal ze wszystkim Mamy tutaj wszystko

NIE MASZ JESZCZE KONTA? ZAREJESTRUJ SIĘ ZA DARMO!   
Przypomnij hasło X

Radio na fali / The Boat That Rocked (2009) PL.720p.BluRay.x264-Crash / POLSKI LEKTOR

Dodał: CrashRed 12 Listopad 2011 15:16


Radio na fali / The Boat That Rocked (2009) PL.720p.BluRay.x264-Crash / POLSKI LEKTOR

Radio na fali / The Boat That Rocked (2009) PL.720p.BluRay.x264-Crash / POLSKI LEKTOR

Radio na fali / The Boat That Rocked (2009) PL.720p.BluRay.x264-Crash / POLSKI LEKTOR
http://www.filmweb.pl/film/Radio+na+fali-2009-467136

Wielka Brytania, Francja, Niemcy, USA |
Komedia, Muzyczny, Dramat

Urocza, prawdziwa brytyjska komedia zrealizowana przez Richarda Curtisa. Historia nielegalnego, rockowego radia które nadawało z …łodzi, pływającej wokół Wielkiej Brytanii. W filmie występują znakomite gwiazdy kina brytyjskiego. Film dla wszystkich miłośników dobrego kina i świetnej muzyki.


Format : Matroska
File size : 3.73 GiB
Duration : 2h 15mn
Overall bit rate : 3 952 Kbps
Video
ID : 1
Format : AVC
Format/Info : Advanced Video Codec
Format profile : High@L4.1
Duration : 2h 15mn
Bit rate : 3 565 Kbps
Width : 1 280 pixels
Height : 720 pixels
Display aspect ratio : 16:9
Frame rate : 23.976 fps
Stream size : 3.29 GiB (88%)
Writing library : x264 core 72 r1217 5e9ae4c
Language : English
Audio
Format : AC-3
Duration : 2h 15mn
Bit rate mode : Constant
Bit rate : 384 Kbps
Channel(s) : 6 channels
Stream size : 371 MiB (10%)
Title : Crash-Polski



Radio na fali / The Boat That Rocked (2009) PL.720p.BluRay.x264-Crash / POLSKI LEKTOR
Uwaga! Linki nie zakodowane tylko dla zarejestrowanych użytkowników!

Nie masz konta? Zarejestruj się za darmo!
----------------
Links are not encoded only for registered users only! Plese login or register!



Użytkownik VIP

CrashRedVIP

#1 | Dodany: 12 Listopad 2011 15:16

ok

Informacje

Jeżeli chcesz skomentować artykuł musisz być zarejestrowany na stronie.