EXSite.pl - Portal ze wszystkim Mamy tutaj wszystko

NIE MASZ JESZCZE KONTA? ZAREJESTRUJ SIĘ ZA DARMO!   
Przypomnij hasło X

1492: Wyprawa do raju / 1492: Conquest of Paradise (1992) PL.720p.BluRay.x264-Crash / POLSKI LEKTOR

Dodał: CrashRed 12 Listopad 2011 18:43


1492: Wyprawa do raju / 1492: Conquest of Paradise (1992) PL.720p.BluRay.x264-Crash / POLSKI LEKTOR

1492: Wyprawa do raju / 1492: Conquest of Paradise (1992) PL.720p.BluRay.x264-Crash / POLSKI LEKTOR

1492: Wyprawa do raju / 1492: Conquest of Paradise (1992) PL.720p.BluRay.x264-Crash / POLSKI LEKTOR
http://www.filmweb.pl/film/1492+Wyprawa+do+raju-1992-985

czas trwania: 2 godz. 34 min.
gatunek: Biograficzny, Przygodowy, Dramat historyczny
premiera: 16 listopada 1992 (Polska) 1992-11-16 8 października 1992 (świat) 1992-10-08
reżyseria: Ridley Scott
scenariusz: Rose Bosch

Jest to filmowa wersja wyprawy Krzysztofa Kolumba. Opowiada nie tylko o wyprawie w nieznane na poszukiwanie Nowego świata, lecz także o życiu sławnego podróżnika. Film został stworzony dla uczczenia pięćsetnej rocznicy wyprawy Kolumba. Była to już druga produkcja tego roku dotycząca Wyprawy. Film Scott'a, chociaż zdobył mniejszą widownię, jest uważany za lepszy obraz.


1492: Wyprawa do raju / 1492: Conquest of Paradise (1992) PL.720p.BluRay.x264-Crash / POLSKI LEKTOR
1492: Wyprawa do raju / 1492: Conquest of Paradise (1992) PL.720p.BluRay.x264-Crash / POLSKI LEKTOR

Format : Matroska
File size : 6.77 GiB
Duration : 2h 29mn
Overall bit rate : 6 485 Kbps

Video
Format : AVC
Format/Info : Advanced Video Codec
Format profile : High@L4.1
Duration : 2h 29mn
Bit rate : 6 099 Kbps
Width : 1 280 pixels
Height : 544 pixels
Display aspect ratio : 2.35:1
Stream size : 6.23 GiB (92%)
Writing library : x264 core 106 r1732 b20059a
Language : English
Audio
Format : AC-3
Duration : 2h 29mn
Bit rate mode : Constant
Bit rate : 384 Kbps
Channel(s) : 2 channels
Stream size : 410 MiB (6%)
Title : Crash-Polski
Language : Polish



1492: Wyprawa do raju / 1492: Conquest of Paradise (1992) PL.720p.BluRay.x264-Crash / POLSKI LEKTOR
Uwaga! Linki nie zakodowane tylko dla zarejestrowanych użytkowników!

Nie masz konta? Zarejestruj się za darmo!
----------------
Links are not encoded only for registered users only! Plese login or register!



Użytkownik VIP

CrashRedVIP

#1 | Dodany: 12 Listopad 2011 18:44

1492: Wyprawa do raju / 1492: Conquest of Paradise (1992) PL.1080p.BluRay.x264-Crash / POLSKI LEKTOR


Format : Matroska
File size : 10.4 GiB
Duration : 2h 29mn
Overall bit rate : 9 928 Kbps
Video
ID : 1
Format : AVC
Format/Info : Advanced Video Codec
Format profile : High@L4.1
Duration : 2h 29mn
Bit rate : 9 548 Kbps
Width : 1 920 pixels
Height : 816 pixels
Display aspect ratio : 2.35:1
Frame rate : 25.000 fps
Stream size : 9.76 GiB (94%)
Writing library : x264 core 107 r1745 4785e8e
Language : English
Audio
Format : AC-3
Duration : 2h 29mn
Bit rate mode : Constant
Bit rate : 384 Kbps
Channel(s) : 2 channels
Stream size : 410 MiB (4%)
Title : Crash-Polski



Uwaga! Linki nie zakodowane tylko dla zarejestrowanych użytkowników!

Nie masz konta? Zarejestruj się za darmo!
----------------
Links are not encoded only for registered users only! Plese login or register!

Użytkownik VIP

torpedomaxUżytkownik

#2 | Dodany: 12 Listopad 2011 18:49

1492: Wyprawa do raju - 1492: Conquest of Paradise(1992)BluRay 720p AC3 x264-DX Lektor PL
General

Uwaga! Linki nie zakodowane tylko dla zarejestrowanych użytkowników!

Nie masz konta? Zarejestruj się za darmo!
----------------
Links are not encoded only for registered users only! Plese login or register!



1492: Wyprawa do raju - 1492: Conquest of Paradise(1992)BluRay m-720p AC3 x264-DX Lektor PL
General

Uwaga! Linki nie zakodowane tylko dla zarejestrowanych użytkowników!

Nie masz konta? Zarejestruj się za darmo!
----------------
Links are not encoded only for registered users only! Plese login or register!


Resident Evil ( 2002 - 2012 ) Kolekcja Multi.BluRay.1080p.x264.DTS-HDMA.DTS.AC3-DX Lektor i Napisy PL

http://www.exsite.pl/filmy_video_movies/filmy-hd-dvd5-dvd9/789890-kolekcja-resident-evil-2002-2012-bluray1080pduallaudiodtsac3x264-dx-engpl-napisy-pl.html

Gwiezdne wojny / Star Wars (1977-2005) THE.COMPLETE.SAGA.MULTi.HQ.1080p.BluRay.x264.DTS-HDMA.DTS.AC3-DX
LEKTOR, DUBBING i NAPISY PL


http://wklej.to/iE7tg
Użytkownik VIP

darkwizardUżytkownik

#3 | Dodany: 1 Listopad 2012 15:32


1492: Wyprawa do raju / 1492: Conquest of Paradise (1992) PL.Blu-ray.720p AC3.x264-Orzech / Lektor PL




Format : Matroska at 6 412 Kbps
Length : 6.69 GiB for 2h 29mn 25s 632ms

Video #0 : AVC at 6 028 Kbps
Aspect : 1280 x 544 (2.353) at 25.000 fps

Audio #0 : AC-3 at 384 Kbps
Infos : 2 channels, 48.0 KHz




Szybkie serwery dla free userow

Uwaga! Linki nie zakodowane tylko dla zarejestrowanych użytkowników!

Nie masz konta? Zarejestruj się za darmo!
----------------
Links are not encoded only for registered users only! Plese login or register!
tylko darmowe hosty

Informacje

Jeżeli chcesz skomentować artykuł musisz być zarejestrowany na stronie.