EXSite.pl - Portal ze wszystkim Mamy tutaj wszystko

NIE MASZ JESZCZE KONTA? ZAREJESTRUJ SIĘ ZA DARMO!   
Przypomnij hasło X

Zakochany kundel / Lady and the Tramp (1955) PL.720p.HDTV.x264-DON / POLSKI DUBBING

Dodał: CrashRed 12 Listopad 2011 19:19


Zakochany kundel / Lady and the Tramp (1955) PL.720p.HDTV.x264-DON / POLSKI DUBBING

Zakochany kundel / Lady and the Tramp (1955) PL.720p.HDTV.x264-DON / POLSKI DUBBING

Zakochany kundel / Lady and the Tramp (1955) PL.720p.HDTV.x264-DON / POLSKI DUBBING
http://www.filmweb.pl/film/Zakochany+kundel-1955-93644

czas trwania: 1 godz. 15 min.
gatunek: Animacja, Familijny, Romans, Muzyczny
premiera: 30 maja 1997 (Polska) 1997-05-30 16 czerwca 1955 (świat) 1955-06-16
reżyseria: Hamilton Luske, Wilfred Jackson
scenariusz: Erdman Penner, Don DaGradi

Lady, urocza i dobrze sytuowana cocker-spanielka, spotyka Trampa, bezpa?skiego kundla. Tramp jest powszechnie znany i szanowany za swą pomysłowość i odwagę, ale z początku nie wpada w oko dumnej suczce. Jednak udaje się mu zyskać serce Lady dzięki romantycznym kolacjom na tyłach włoskiej knajpki i wspólnym ucieczkom przed hyclem. Wszystko układa się dobrze dopóki Lady nie zostaje w ko?cu złapana przez hycla...


Format : Matroska
File size : 4.24 GiB
Duration : 1h 16mn
Overall bit rate : 7 981 Kbps
Video
Format/Info : Advanced Video Codec
Format profile : High@L4.1
Duration : 1h 16mn
Bit rate : 7 860 Kbps
Width : 1 276 pixels
Height : 720 pixels
Display aspect ratio : 16:9
Frame rate : 23.976 fps
Stream size : 4.05 GiB (96%)
Title : HDTV 720p
Writing library : x264 core 110 r1820+3 c488b3b
Language : English
Audio
Format : AC-3
Duration : 1h 16mn
Bit rate mode : Constant
Bit rate : 192 Kbps
Channel(s) : 2 channels
Stream size : 104 MiB (2%)
Language : Polish



Zakochany kundel / Lady and the Tramp (1955) PL.720p.HDTV.x264-DON / POLSKI DUBBING
Uwaga! Linki nie zakodowane tylko dla zarejestrowanych użytkowników!

Nie masz konta? Zarejestruj się za darmo!
----------------
Links are not encoded only for registered users only! Plese login or register!



Użytkownik VIP

CrashRedVIP

#1 | Dodany: 12 Listopad 2011 19:20

ok
Użytkownik VIP

kiro1Użytkownik

#2 | Dodany: 17 Listopad 2011 21:49

Zakochany Kundel / Lady and the Tramp (1955) DVDrip DUBBING PL
Dane Techniczne:
Format : AVI at 1.035 Kb/s
Length : 656,58 MB  
Video : MPEG-4 Visual at 891 Kb/s
Aspect : 640 x 272 (2.353) at 23.976 fps
Audio : MPEG Audio at 132 Kb/s
Infos : 2 channels, 48,0 KHz

Opis Uploadu:
Wielkość Całkowita : 656,58 MB
Wersja Językowa : dubbing polski
Zawartość Uploadu: plik.AVI
Dane naprawcze : 0%
Rodzaj Kompresji : brak

Download Filesonic

http://www.filesonic.com/file/3499071025/Zakochany.Kundel.Lady.and.the.Tramp.1955.DVDrip.DUBBING.PL.avi

Download Wupload

http://www.wupload.com/file/2299811742/Zakochany.Kundel.Lady.and.the.Tramp.1955.DVDrip.DUBBING.PL.avi

Download Uploadstation

http://www.uploadstation.com/file/kX69Nyx/Zakochany.Kundel.Lady.and.the.Tramp.1955.DVDrip.DUBBING.PL.avi

Download Fileserve

http://www.fileserve.com/file/BSqSfjc/Zakochany.Kundel.Lady.and.the.Tramp.1955.DVDrip.DUBBING.PL.avi

HASŁO:
bez hasła

Informacje

Jeżeli chcesz skomentować artykuł musisz być zarejestrowany na stronie.