EXSite.pl - Portal ze wszystkim Mamy tutaj wszystko

NIE MASZ JESZCZE KONTA? ZAREJESTRUJ SIĘ ZA DARMO!   
Przypomnij hasło X

Księżniczka i Żaba / The Princess and the Frog (2009) PL.720p.BluRay.x264-ESiR / POLSKI DUBBING

Dodał: CrashRed 12 Listopad 2011 19:47


Księżniczka i Żaba / The Princess and the Frog (2009) PL.720p.BluRay.x264-ESiR / POLSKI DUBBING

Księżniczka i Żaba / The Princess and the Frog (2009) PL.720p.BluRay.x264-ESiR / POLSKI DUBBING

Księżniczka i Żaba / The Princess and the Frog (2009) PL.720p.BluRay.x264-ESiR / POLSKI DUBBING
http://www.filmweb.pl/film/Ksi%C4%99%C5%BCniczka+i+%C5%BBaba-2009-375719

czas trwania: 1 godz. 37 min.
gatunek: Animacja, Dla dzieci
premiera: 15 stycznia 2010 (Polska) 2010-01-15 25 listopada 2009 (świat) 2009-11-25
reżyseria: Ron Clements, John Musker
scenariusz: Ron Clements, John Musker (więcej...)

Historia dziewczyny żyjącej w sercu Luizjany, Nowym Orleanie. Piękna księżniczka Tiana, bardzo zuchwała żaba i śpiewające aligatory są bohaterami tej baśniowej opowieści.


Format : Matroska
File size : 3.61 GiB
Duration : 1h 37mn
Overall bit rate : 5 302 Kbps
Video
Format/Info : Advanced Video Codec
Format profile : High@L4.1
Duration : 1h 37mn
Bit rate : 4 850 Kbps
Width : 1 280 pixels
Height : 720 pixels
Display aspect ratio : 16:9
Frame rate : 23.976 fps
Stream size : 3.23 GiB (90%)
Writing library : x264 core 84 r1416 fcf70c2
Language : English
Audio
Format : AC-3
Duration : 1h 37mn
Bit rate mode : Constant
Bit rate : 448 Kbps
Channel(s) : 6 channels
Stream size : 312 MiB (8%)
Language : Polish



Księżniczka i Żaba / The Princess and the Frog (2009) PL.720p.BluRay.x264-ESiR / POLSKI DUBBING
Uwaga! Linki nie zakodowane tylko dla zarejestrowanych użytkowników!

Nie masz konta? Zarejestruj się za darmo!
----------------
Links are not encoded only for registered users only! Plese login or register!



Użytkownik VIP

CrashRedVIP

#1 | Dodany: 12 Listopad 2011 19:48

ok

Informacje

Jeżeli chcesz skomentować artykuł musisz być zarejestrowany na stronie.