EXSite.pl - Portal ze wszystkim Mamy tutaj wszystko

NIE MASZ JESZCZE KONTA? ZAREJESTRUJ SIĘ ZA DARMO!   
Przypomnij hasło X

Chinatown (1974) PL.720p.HDTV.x264-Destiny / POLSKI LEKTOR +mHD

Dodał: CrashRed 19 Listopad 2011 20:33


Chinatown (1974) PL.720p.HDTV.x264-Destiny / POLSKI LEKTOR +mHD

Chinatown (1974) PL.720p.HDTV.x264-Destiny / POLSKI LEKTOR +mHD

Chinatown (1974) PL.720p.HDTV.x264-Destiny / POLSKI LEKTOR +mHD
http://www.filmweb.pl/film/Chinatown-1974-1027

czas trwania: 2 godz. 15 min.
gatunek: Kryminał, Film-Noir
premiera: 31 grudnia 1974 (Polska) 1974-12-31 20 czerwca 1974 (świat) 1974-06-20
reżyseria: Roman Pola?ski
scenariusz: Roman Pola?ski, Robert Towne

Pechowy prywatny detektyw, tajemnicza piękność, bezwzględny mafioso oraz skomplikowana intryga utkana ze zdrady, morderstw, korupcji, skandali i śmiertelnie niebezpiecznych układów. Wszystko to w mrocznej i stylowej opowieści o latach 30-tych, uznawanej za pozycję wyjątkową i ponadczasową, a także za hołd Romana Pola?skiego dla niezwykłego gatunku, jakim jest klasyczny czarny kryminał. Intrygujący scenariusz (Oscar dla Roberta Towne), mistrzowska reżyseria i niezapomniane kreacje.


Chinatown (1974) PL.720p.HDTV.x264-Destiny / POLSKI LEKTOR +mHD
Chinatown (1974) PL.720p.HDTV.x264-Destiny / POLSKI LEKTOR +mHD

Format : Matroska
File size : 6.62 GiB
Duration : 2h 10mn
Overall bit rate : 7 268 Kbps
Video
Format/Info : Advanced Video Codec
Format profile : High@L3.1
Bit rate : 6 817 Kbps
Width : 1 280 pixels
Height : 544 pixels
Display aspect ratio : 2.35:1
Frame rate : 23.976 fps
Stream size : 6.08 GiB (92%)
Writing library : x264 core 66 r1109M 75b495f
Language : English
Audio
Format : AC-3
Duration : 2h 10mn
Bit rate mode : Constant
Bit rate : 448 Kbps
Channel(s) : 6 channels
Stream size : 418 MiB (6%)
Title : Destiny-Polski



Chinatown (1974) PL.720p.HDTV.x264-Destiny / POLSKI LEKTOR +mHD
Uwaga! Linki nie zakodowane tylko dla zarejestrowanych użytkowników!

Nie masz konta? Zarejestruj się za darmo!
----------------
Links are not encoded only for registered users only! Plese login or register!







Chinatown (1974) PL.m-720p.HDTV.x264-Destiny / POLSKI LEKTOR

Format : Matroska
File size : 1.79 GiB
Duration : 2h 10mn
Overall bit rate : 1 961 Kbps
Video
ID : 1
Format : AVC
Format/Info : Advanced Video Codec
Format profile : High@L5.0
Duration : 2h 10mn
Bit rate : 1 474 Kbps
Width : 1 280 pixels
Height : 544 pixels
Display aspect ratio : 2.35:1
Frame rate : 23.976 fps
Color space : YUV
Stream size : 1.34 GiB (75%)
Writing library : x264 core 67 r1145M d2e1e1c
Language : English
Audio
ID : 2
Format : AC-3
Duration : 2h 10mn
Bit rate mode : Constant
Bit rate : 448 Kbps
Channel(s) : 6 channels
Stream size : 418 MiB (23%)
Title : Destiny-Polski



Uwaga! Linki nie zakodowane tylko dla zarejestrowanych użytkowników!

Nie masz konta? Zarejestruj się za darmo!
----------------
Links are not encoded only for registered users only! Plese login or register!



Użytkownik VIP

CrashRedVIP

#1 | Dodany: 13 Listopad 2011 18:12

ok
Użytkownik VIP

dyskoteka1987Trial Uploader

#2 | Dodany: 13 Listopad 2011 20:20

thx
Użytkownik VIP

TunakUżytkownik

#3 | Dodany: 19 Listopad 2011 20:44

thx
Użytkownik VIP

zuzka007Użytkownik

#4 | Dodany: 20 Listopad 2011 17:39

W wersji Chinatown (1974) PL.m-720p.HDTV.x264-Destiny / POLSKI LEKTOR
4 plik jest uszkodzony (BŁĄD CRC). 3 pobrania z 3 różnych serwerów dają ten sam rezultat!
Możesz to poprawić?
Użytkownik VIP

CrashRedVIP

#5 | Dodany: 20 Listopad 2011 18:11

zuzka007,
na filesonic wszystko rozpakowuje sie bez problemu tak ze w razie problemow ostatni part nalezy pobrac z filesonic.
Użytkownik VIP

zuzka007Użytkownik

#6 | Dodany: 20 Listopad 2011 22:39

Dziękuję bardzo za pomoc brawo , wszystko działa.
thx
Użytkownik VIP

dziad997Użytkownik

#7 | Dodany: 16 Styczeń 2012 16:39

Chinatown (1974) DVDrip Xvid Lektor PL

Uwaga! Linki nie zakodowane tylko dla zarejestrowanych użytkowników!

Nie masz konta? Zarejestruj się za darmo!
----------------
Links are not encoded only for registered users only! Plese login or register!

Informacje

Jeżeli chcesz skomentować artykuł musisz być zarejestrowany na stronie.