EXSite.pl - Portal ze wszystkim Mamy tutaj wszystko

NIE MASZ JESZCZE KONTA? ZAREJESTRUJ SIĘ ZA DARMO!   
Przypomnij hasło X

Szczęki / Jaws (1975) PL.BluRay.m720p.AC3.x264-DX Lektor PL

Dodał: torpedomax 13 Listopad 2011 21:05


Szczęki / Jaws (1975) BluRay m-720p AC3 x264-DX Lektor PL

Szczęki / Jaws (1975) PL.BluRay.m720p.AC3.x264-DX Lektor PL

czas trwania: 2 godz. 4 min.
gatunek: Thriller
premiera: 31 grudnia 1990 (Polska) 1990-12-31 20 czerwca 1975 (świat) 1975-06-20
reżyseria: Steven Spielberg
scenariusz: Robert Shaw, Howard Sackler

W niewielkiej osadzie na wyspie wybucha panika po kolejnych atakach jakiegoś stworzenia na pływających w morzu. Okazuje się, że wielki biały rekin nie chce wcale stąd odpływać. Szeryf Brody (Roy Scheider) z przyjaciółmi Hooper'em (Richard Dreyfuss) i Quint'em (Robert Shaw) decydują się go zabić.

Source :

V : Jaws (1975) 1080i MPEG2 DD5.1
A : HDTV

General


Szczęki / Jaws (1975) PL.BluRay.m720p.AC3.x264-DX Lektor PLSzczęki / Jaws (1975) PL.BluRay.m720p.AC3.x264-DX Lektor PL
Szczęki / Jaws (1975) PL.BluRay.m720p.AC3.x264-DX Lektor PLSzczęki / Jaws (1975) PL.BluRay.m720p.AC3.x264-DX Lektor PL


Uwaga! Linki nie zakodowane tylko dla zarejestrowanych użytkowników!

Nie masz konta? Zarejestruj się za darmo!
----------------
Links are not encoded only for registered users only! Plese login or register!


Użytkownik VIP

CrashRedVIP

#1 | Dodany: 1 Styczeń 2012 17:47

Szczęki / Jaws (1975) PL.720p.HDTV.DTS.x264-Crash / POLSKI LEKTOR

Format : Matroska
File size : 6.10 GiB
Duration : 2h 3mn
Overall bit rate : 7 052 Kbps
Movie name : Jaws (1975)
Video
Format/Info : Advanced Video Codec
Format profile : High@L4.1
Duration : 2h 3mn
Bit rate : 6 666 Kbps
Width : 1 280 pixels
Height : 544 pixels
Display aspect ratio : 2.35:1
Frame rate : 23.976 fps
Stream size : 5.65 GiB (93%)
Title : Don
Writing library : x264 core 116 r2019 9cc407d
Language : English
Audio
Format : AC-3
Duration : 2h 3mn
Bit rate mode : Constant
Bit rate : 384 Kbps
Channel(s) : 6 channels
Stream size : 340 MiB (5%)
Title : Crash-Polski



Szczęki / Jaws (1975) PL.720p.HDTV.DTS.x264-Crash / POLSKI LEKTOR

Uwaga! Linki nie zakodowane tylko dla zarejestrowanych użytkowników!

Nie masz konta? Zarejestruj się za darmo!
----------------
Links are not encoded only for registered users only! Plese login or register!

Informacje

Jeżeli chcesz skomentować artykuł musisz być zarejestrowany na stronie.