EXSite.pl - Portal ze wszystkim Mamy tutaj wszystko

NIE MASZ JESZCZE KONTA? ZAREJESTRUJ SIĘ ZA DARMO!   
Przypomnij hasło X

Kung Fu Panda 2 (2011) PL.DUB.1080p.BluRay.x264-J25 / DUBBiNG PL

Dodał: joseph0025 14 Listopad 2011 17:04


Kung Fu Panda 2 (2011)

PL.DUB.1080p.BluRay.x264-J25 / DUBBiNG PL


 Kung Fu Panda 2 (2011)  PL.DUB.1080p.BluRay.x264-J25 / DUBBiNG PL

 Kung Fu Panda 2 (2011)  PL.DUB.1080p.BluRay.x264-J25 / DUBBiNG PL


iNFO


reżyseria: Jennifer Yuh
scenariusz: Jonathan Aibel, Glenn Berger
premiera: 27 maja 2011 (Polska) 26 maja 2011 (świat)
produkcja: USA
gatunek: Animacja, Familijny, Komedia, Przygodowy

Komedia twórców hitów “Shrek”, “Madagaskar” i “Kung Fu Panda”. Spełniły się marzenia Po i jest on teraz Smoczym Wojownikiem. Wraz z przyjaciółmi, mistrzami kung fu, czyli Potężną Piątką: Tygrysicą, Żurawiem, Modliszką, Żmiją i Małpą, chroni Dolinę Spokoju. Ale nowe wspaniałe życie Po jest zagrożone. Oto straszliwy złoczy?ca planuje wykorzystać pewną sekretną bro?, by podbić Chiny i zniszczyć kung fu. Po i Potężna Piątka muszą wyruszyć w podróż przez kraj, aby stawić czoła zagrożeniu i zniszczyć zło. Ale jak Po pokona bro?, zdolną pokonać kung fu? Musi spojrzeć wstecz i odkryć tajemnicę swego pochodzenia. Tylko wtedy będzie umiał uwolnić siłę, której tak bardzo potrzebuje do zwycięstwa.



DANE TECHNiCZNE:
RELEASE:  Kung.Fu.Panda.2.2011.PL.DUB.1080p.BluRay.x264-J25

Format            : Matroska at 9.571 Kb/s
Length            : 5,80 GB for 1h 26 min. 41s 824ms

Video #0          : AVC at 8.750 Kb/s
Aspect            : 1920 x 816 (2.353) at 25.000 fps

Audio #0          : AC-3 at 448 Kb/s
Infos             : 6 kanałów, 48,0 KHz
Language          : pl

SOURCE: FLAWL3SS / DS (thx!)



OPiS UPLOADU:
Wielkość Uploadu: 5,80 GB
Rodzaj Kompresji: RAR
Zawartość Uploadu: Plik .MKV
Wersja Językowa: POLSKi DUBBiNG
Dane Naprawcze: BRAK
Hasło: BRAK


SCREENY



 Kung Fu Panda 2 (2011)  PL.DUB.1080p.BluRay.x264-J25 / DUBBiNG PL  Kung Fu Panda 2 (2011)  PL.DUB.1080p.BluRay.x264-J25 / DUBBiNG PL  Kung Fu Panda 2 (2011)  PL.DUB.1080p.BluRay.x264-J25 / DUBBiNG PL  Kung Fu Panda 2 (2011)  PL.DUB.1080p.BluRay.x264-J25 / DUBBiNG PL  Kung Fu Panda 2 (2011)  PL.DUB.1080p.BluRay.x264-J25 / DUBBiNG PL


POBiERZ / DOWNLOAD

PARTY PO 1GB | MOŻNA POBiERAĆ NA PRZEMiAN | BEZ HASŁA


Uwaga! Linki nie zakodowane tylko dla zarejestrowanych użytkowników!

Nie masz konta? Zarejestruj się za darmo!
----------------
Links are not encoded only for registered users only! Plese login or register!



Użytkownik VIP

joseph0025VIP Uploader

#1 | Dodany: 14 Listopad 2011 17:04

ok
:)
Użytkownik VIP

CrashRedVIP

#2 | Dodany: 14 Listopad 2011 17:10

ok
Użytkownik VIP

nicramkUżytkownik

#3 | Dodany: 14 Listopad 2011 17:57

można prosić na fileserve?
Użytkownik VIP

marioman3Użytkownik

#4 | Dodany: 14 Listopad 2011 19:21

Dzięki.
Użytkownik VIP

pirek22Użytkownik

#5 | Dodany: 14 Listopad 2011 20:10

a bedzie wupload?
Użytkownik VIP

CrashRedVIP

#6 | Dodany: 15 Listopad 2011 16:27

[center][size=2]Kung Fu Panda 2 (2011) PLDUB.Bluray.x264.DTS.Crash / [DUAL AUDIO] POLSKI DUBBING[/size]

Format : Matroska
File size : 6.50 GiB
Duration : 1h 30mn
Overall bit rate : 10.3 Mbps
Video
ID : 1
Format/Info : Advanced Video Codec
Format profile : High@L4.1
Duration : 1h 30mn
Bit rate : 8 135 Kbps
Width : 1 920 pixels
Height : 816 pixels
Display aspect ratio : 2.35:1
Frame rate : 23.976 fps
Stream size : 5.01 GiB (77%)
Writing library : x264 core 115 r1995 c1e60b9
Language : English
Audio #
Format : DTS
Duration : 1h 30mn
Bit rate mode : Constant
Bit rate : 1 510 Kbps
Channel(s) : 6 channels
Channel positions : Front: L C R, Side: L R, LFE
Stream size : 976 MiB (15%)
Language : English
Audio #2
Format : AC-3
Duration : 1h 30mn
Bit rate mode : Constant
Bit rate : 640 Kbps
Channel(s) : 6 channels
Stream size : 414 MiB (6%)
Title : Crash-Polski
S.v=HDChina

Uwaga! Linki nie zakodowane tylko dla zarejestrowanych użytkowników!

Nie masz konta? Zarejestruj się za darmo!
----------------
Links are not encoded only for registered users only! Plese login or register!
Użytkownik VIP

RicardogoUżytkownik

#7 | Dodany: 16 Listopad 2011 19:33

Linki padły :(

Linki Padły ;(
Zach?annoś? moderator?w skorygowa? mo?e tylko pukanie o 6 rano.

Informacje

Jeżeli chcesz skomentować artykuł musisz być zarejestrowany na stronie.