EXSite.pl - Portal ze wszystkim Mamy tutaj wszystko

NIE MASZ JESZCZE KONTA? ZAREJESTRUJ SIĘ ZA DARMO!   
Przypomnij hasło X

Uciekinier / The Running Man (1987) PL.BluRay.m720p.AC3.x264-DX Lektor PL

Dodał: torpedomax 14 Listopad 2011 19:14


Uciekinier / The Running Man (1987) BluRay m-720p AC3 x264-DX Lektor PL

Uciekinier / The Running Man (1987) PL.BluRay.m720p.AC3.x264-DX Lektor PL

czas trwania: 1 godz. 41 min.
gatunek: Akcja, Sci-Fi
premiera: 13 listopada 1987 (świat) 1987-11-13
reżyseria: Paul Michael Glaser
scenariusz: Steven E. de Souza

Jest rok 2019. Policjant Ben Richards (Arnold Schwarzenegger), zostaje skazany na długoletnie więzienie. Jest niesłusznie oskarżony o masakrę ludzi na ulicach Los Angeles. świat przyszłości jest zupełnie inny od naszego. Umysły ludzi opanowała telewizyjna rozrywka - show "Uciekinier", w którym ludzie, niczym łowna zwierzyna, muszą uciekać przed ścigającymi ich myśliwymi. Kto zostanie schwytany ten po prostu ginie. Twórca programu Damon Killian wpada na genialny pomysł by program jeszcze bardziej uatrakcyjnić. Przekonuje władze, by oddały mu do dyspozycji Bena Richardsa.

General


Uciekinier / The Running Man (1987) PL.BluRay.m720p.AC3.x264-DX Lektor PLUciekinier / The Running Man (1987) PL.BluRay.m720p.AC3.x264-DX Lektor PL
Uciekinier / The Running Man (1987) PL.BluRay.m720p.AC3.x264-DX Lektor PLUciekinier / The Running Man (1987) PL.BluRay.m720p.AC3.x264-DX Lektor PL

Uwaga! Linki nie zakodowane tylko dla zarejestrowanych użytkowników!

Nie masz konta? Zarejestruj się za darmo!
----------------
Links are not encoded only for registered users only! Plese login or register!


Użytkownik VIP

CrashRedVIP

#1 | Dodany: 14 Listopad 2011 22:42

Uciekinier / The Running Man (1987) PL.1080p.BluRay.x264-Crash / POLSKI LEKTOR

Format : Matroska
File size : 7.02 GiB
Duration : 1h 40mn
Overall bit rate : 9 976 Kbps
Video
ID : 1
Format : AVC
Format profile : High@L4.0
Duration : 1h 40mn
Bit rate : 9 782 Kbps
Width : 1 920 pixels
Height : 1 080 pixels
Display aspect ratio : 16:9
Frame rate : 23.976 fps
Stream size : 6.74 GiB (96%)
Writing library : x264 core 84 r1416 fcf70c2
Language : English
Audio
Format : AC-3
Duration : 1h 40mn
Bit rate mode : Constant
Bit rate : 192 Kbps
Channel(s) : 2 channels
Stream size : 138 MiB (2%)
Title : Crash-Polski
Language : Polish



Uciekinier / The Running Man (1987) PL.1080p.BluRay.x264-Crash / POLSKI LEKTOR
Uwaga! Linki nie zakodowane tylko dla zarejestrowanych użytkowników!

Nie masz konta? Zarejestruj się za darmo!
----------------
Links are not encoded only for registered users only! Plese login or register!
Użytkownik VIP

qgrzegorzGość

#2 | Dodany: 12 Luty 2012 13:41

Uciekinier / The Running Man (1987) [Lektor PL] 1080p.BluRay.x264

Dane Techniczne:
General           : The.Running.Man.1987.1080p.BluRay.PL.x264.mkv
Format            : Matroska at 9.975 Kb/s
Length            : 7,02 GB for 1h 40 min. 43s 288ms

Video #0          : AVC at 9.782 Kb/s
Aspect            : 1920 x 1080 (1.778) at 23.976 fps

Audio #0          : AC-3 at 192 Kb/s
Infos             : 2 kanały, 48,0 KHz
Language          : pl

INFO Lektor: lektor profesjonalny
Źródło obrazu: *Blu-ray/DVD*


Opis uploadu:
wielkość całości: 7.79 GB
rodzaj kompresji: .rar
zawartość uploadu: plik .mkv
wersja językowa: PL
Dane naprawcze:10%


Download:
Uwaga! Linki nie zakodowane tylko dla zarejestrowanych użytkowników!

Nie masz konta? Zarejestruj się za darmo!
----------------
Links are not encoded only for registered users only! Plese login or register!

HASŁO:

filmik

Martwe linki.Pisz na PW zrobie reupload.

Informacje

Jeżeli chcesz skomentować artykuł musisz być zarejestrowany na stronie.