EXSite.pl - Portal ze wszystkim Mamy tutaj wszystko

NIE MASZ JESZCZE KONTA? ZAREJESTRUJ SIĘ ZA DARMO!   
Przypomnij hasło X

Kung Fu Panda 2 (2011) PLDUB.Bluray.1080p.x264.DTS.Crash / [DUAL AUDIO] POLSKI DUBBING

Dodał: CrashRed 15 Listopad 2011 16:26


Kung Fu Panda 2 (2011) PLDUB.Bluray.x264.DTS.Crash / [DUAL AUDIO] POLSKI DUBBING

Kung Fu Panda 2 (2011) PLDUB.Bluray.1080p.x264.DTS.Crash / [DUAL AUDIO] POLSKI DUBBING

Kung Fu Panda 2 (2011) PLDUB.Bluray.1080p.x264.DTS.Crash / [DUAL AUDIO] POLSKI DUBBING
http://www.filmweb.pl/film/Kung+Fu+Panda+2-2011-491331

czas trwania: 1 godz. 30 min.
gatunek: Animacja, Familijny, Komedia, Przygodowy
premiera: 27 maja 2011 (Polska) 2011-05-27 26 maja 2011 (świat) 2011-05-26
reżyseria: Jennifer Yuh
scenariusz: Jonathan Aibel, Glenn Berger

Komedia twórców hitów “Shrek”, “Madagaskar” i “Kung Fu Panda”. Spełniły się marzenia Po i jest on teraz Smoczym Wojownikiem. Wraz z przyjaciółmi, mistrzami kung fu, czyli Potężną Piątką: Tygrysicą, Żurawiem, Modliszką, Żmiją i Małpą, chroni Dolinę Spokoju. Ale nowe wspaniałe życie Po jest zagrożone. Oto straszliwy złoczy?ca planuje wykorzystać pewną sekretną bro?, by podbić Chiny i zniszczyć kung fu. Po i Potężna Piątka muszą wyruszyć w podróż przez kraj, aby stawić czoła zagrożeniu i
zniszczyć zło. Ale jak Po pokona bro?, zdolną pokonać kung fu? Musi spojrzeć wstecz i odkryć tajemnicę swego pochodzenia. Tylko wtedy będzie umiał uwolnić siłę, której tak bardzo potrzebuje do zwycięstwa


Format : Matroska
File size : 6.50 GiB
Duration : 1h 30mn
Overall bit rate : 10.3 Mbps
Video
ID : 1
Format/Info : Advanced Video Codec
Format profile : High@L4.1
Duration : 1h 30mn
Bit rate : 8 135 Kbps
Width : 1 920 pixels
Height : 816 pixels
Display aspect ratio : 2.35:1
Frame rate : 23.976 fps
Stream size : 5.01 GiB (77%)
Writing library : x264 core 115 r1995 c1e60b9
Language : English
Audio #
Format : DTS
Duration : 1h 30mn
Bit rate mode : Constant
Bit rate : 1 510 Kbps
Channel(s) : 6 channels
Channel positions : Front: L C R, Side: L R, LFE
Stream size : 976 MiB (15%)
Language : English
Audio #2
Format : AC-3
Duration : 1h 30mn
Bit rate mode : Constant
Bit rate : 640 Kbps
Channel(s) : 6 channels
Stream size : 414 MiB (6%)
Title : Crash-Polski
S.v=HDChina



Kung Fu Panda 2 (2011) PLDUB.Bluray.1080p.x264.DTS.Crash / [DUAL AUDIO] POLSKI DUBBING
Uwaga! Linki nie zakodowane tylko dla zarejestrowanych użytkowników!

Nie masz konta? Zarejestruj się za darmo!
----------------
Links are not encoded only for registered users only! Plese login or register!



Użytkownik VIP

CrashRedVIP

#1 | Dodany: 15 Listopad 2011 16:26

ok

Informacje

Jeżeli chcesz skomentować artykuł musisz być zarejestrowany na stronie.