EXSite.pl - Portal ze wszystkim Mamy tutaj wszystko

NIE MASZ JESZCZE KONTA? ZAREJESTRUJ SIĘ ZA DARMO!   
Przypomnij hasło X

Gniew oceanu / Perfect Storm, The (2000) m720p.BluRay.x264-vsenc

Dodał: misiekxxxl 15 Listopad 2011 16:56



Gniew oceanu / Perfect Storm, The (2000) m720p.BluRay.x264-vsenc


Gniew oceanu / Perfect Storm, The (2000) m720p.BluRay.x264-vsenc

Gniew oceanu / Perfect Storm, The (2000) m720p.BluRay.x264-vsenc
Film oparty na bestsellerowej powieści Sebastiana Jungera. Jest to opowieść o ludziach, którzy codziennie ryzykują swoje życie ratując statki przed niszczącymi siłami natury. Jesienią 1991 roku morze przynosi im największe, jak dotąd, wyzwanie w postaci trzech jednoczesnych huraganów tworzących najpotężniejszy sztorm w nowożytnej historii.

DANE TECHNICZNE:
Language: English
Matroska | 2.863 GiB | 1280x532 | AVC @ 2 455 Kbps | AC3 @ 448 Kbps - 6 channels | 2h 9mn

Gniew oceanu / Perfect Storm, The (2000) m720p.BluRay.x264-vsenc


Gniew oceanu / Perfect Storm, The (2000) m720p.BluRay.x264-vsenc

Gniew oceanu / Perfect Storm, The (2000) m720p.BluRay.x264-vsenc
Uwaga! Linki nie zakodowane tylko dla zarejestrowanych użytkowników!

Nie masz konta? Zarejestruj się za darmo!
----------------
Links are not encoded only for registered users only! Plese login or register!


Gniew oceanu / Perfect Storm, The (2000) m720p.BluRay.x264-vsenc
Uwaga! Linki nie zakodowane tylko dla zarejestrowanych użytkowników!

Nie masz konta? Zarejestruj się za darmo!
----------------
Links are not encoded only for registered users only! Plese login or register!




Zapraszam do odwiedzenia innych moich wstawek
podzielonych na kategorie:


Gniew oceanu / Perfect Storm, The (2000) m720p.BluRay.x264-vsenc
Gniew oceanu / Perfect Storm, The (2000) m720p.BluRay.x264-vsenc
Gniew oceanu / Perfect Storm, The (2000) m720p.BluRay.x264-vsenc

Gniew oceanu / Perfect Storm, The (2000) m720p.BluRay.x264-vsenc

Użytkownik VIP

torpedomaxUżytkownik

#1 | Dodany: 15 Listopad 2011 17:06

Gniew oceanu / The Perfect Storm (2000) BluRay m-720p AC3 x264-DX Lektor PL

General


Uwaga! Linki nie zakodowane tylko dla zarejestrowanych użytkowników!

Nie masz konta? Zarejestruj się za darmo!
----------------
Links are not encoded only for registered users only! Plese login or register!



Gniew oceanu / The Perfect Storm (2000) BluRay m-1080p AC3 x264-DX Lektor PL

General


Uwaga! Linki nie zakodowane tylko dla zarejestrowanych użytkowników!

Nie masz konta? Zarejestruj się za darmo!
----------------
Links are not encoded only for registered users only! Plese login or register!


Resident Evil ( 2002 - 2012 ) Kolekcja Multi.BluRay.1080p.x264.DTS-HDMA.DTS.AC3-DX Lektor i Napisy PL

http://www.exsite.pl/filmy_video_movies/filmy-hd-dvd5-dvd9/789890-kolekcja-resident-evil-2002-2012-bluray1080pduallaudiodtsac3x264-dx-engpl-napisy-pl.html

Gwiezdne wojny / Star Wars (1977-2005) THE.COMPLETE.SAGA.MULTi.HQ.1080p.BluRay.x264.DTS-HDMA.DTS.AC3-DX
LEKTOR, DUBBING i NAPISY PL


http://wklej.to/iE7tg
Użytkownik VIP

CrashRedVIP

#2 | Dodany: 15 Listopad 2011 17:29

Gniew oceanu / The Perfect Storm (2000) PL.Blu-Ray.1080p.x264.Destiny / POLSKI LEKTOR

Format : Matroska
File size : 11.3 GiB
Duration : 2h 9mn
Overall bit rate : 12.4 Mbps
Video
ID : 1
Format : AVC
Format/Info : Advanced Video Codec
Format profile : High@L4.1
Duration : 2h 9mn
Bit rate : 12.1 Mbps
Width : 1 920 pixels
Height : 798 pixels
Display aspect ratio : 2.40:1
Frame rate : 23.976 fps
Stream size : 10.7 GiB (95%)
Title : The Perfect Storm @ 12050kbps
Writing library : x264 core 61 r965M 3d2983d
Language : English
Audio
Format : AC-3
Duration : 2h 9mn
Bit rate mode : Constant
Bit rate : 384 Kbps
Channel(s) : 6 channels
Stream size : 357 MiB (3%)
Title : Destiny-Polski



Gniew oceanu / The Perfect Storm (2000) PL.Blu-Ray.1080p.x264.Destiny / POLSKI LEKTOR


Uwaga! Linki nie zakodowane tylko dla zarejestrowanych użytkowników!

Nie masz konta? Zarejestruj się za darmo!
----------------
Links are not encoded only for registered users only! Plese login or register!

Informacje

Jeżeli chcesz skomentować artykuł musisz być zarejestrowany na stronie.