EXSite.pl - Portal ze wszystkim Mamy tutaj wszystko

NIE MASZ JESZCZE KONTA? ZAREJESTRUJ SIĘ ZA DARMO!   
Przypomnij hasło X

Rambo 1-3 / Rambo 1-3 (1982-1988) PL.BluRay.1080p.DTS.x264-Crash / POLSKI LEKTOR

Dodał: CrashRed 3 Grudzień 2011 16:37


Rambo: Pierwsza krew / First Blood (1982) PL.BluRay.1080p.DTS.x264-Crash / POLSKI LEKTOR

Rambo 1-3 / Rambo 1-3 (1982-1988) PL.BluRay.1080p.DTS.x264-Crash / POLSKI LEKTOR

Rambo 1-3 / Rambo 1-3 (1982-1988) PL.BluRay.1080p.DTS.x264-Crash / POLSKI LEKTOR
http://www.filmweb.pl/Rambo.Pierwsza.Krew

czas trwania: 1 godz. 33 min.
gatunek: Dramat, Akcja
premiera: 22 października 1982 (świat) 1982-10-22
reżyseria: Ted Kotcheff
scenariusz: Sylvester Stallone, Michael Kozoll (więcej...)

John Rambo (Sylvester Stallone), weteran wojny w Wietnamie podróżuje od miasta do miasta szukając swych kolegów z wojska. Kiedy po prośbie szeryfa Teasle'a (Brian Dennehy) nie chce opuścić miasteczka, zostaje aresztowany. Wkrótce jednak ucieka i jest gotów prowadzić samotną wojnę. Jedyną osobą która może go powstrzymać jest jego dawny dowódca Samuel Trautman (Richard Crenna)...



Rambo 1-3 / Rambo 1-3 (1982-1988) PL.BluRay.1080p.DTS.x264-Crash / POLSKI LEKTOR
Rambo 1-3 / Rambo 1-3 (1982-1988) PL.BluRay.1080p.DTS.x264-Crash / POLSKI LEKTOR

Format : Matroska
File size : 8.71 GiB
Duration : 1h 36mn
Overall bit rate : 13.0 Mbps
Video
Format/Info : Advanced Video Codec
Format profile : High@L4.1
Duration : 1h 36mn
Bit rate : 10.8 Mbps
Nominal bit rate : 11.4 Mbps
Width : 1 916 pixels
Height : 820 pixels
Display aspect ratio : 2.35:1
Original display aspect ratio : 2.35:1
Frame rate : 23.976 fps
Stream size : 7.22 GiB (83%)
Writing library : x264 core 114 r1913 5fd3dce
Language : English
Audio #
Format : DTS
Duration : 1h 36mn
Bit rate mode : Constant
Bit rate : 1 510 Kbps
Channel(s) : 6 channels
Stream size : 1.01 GiB (12%)
Language : English
Audio #2
Format : AC-3
Duration : 1h 36mn
Bit rate mode : Constant
Bit rate : 448 Kbps
Channel(s) : 6 channels
Stream size : 308 MiB (3%)
Title : Crash-Polski



Rambo 1-3 / Rambo 1-3 (1982-1988) PL.BluRay.1080p.DTS.x264-Crash / POLSKI LEKTOR
Uwaga! Linki nie zakodowane tylko dla zarejestrowanych użytkowników!

Nie masz konta? Zarejestruj się za darmo!
----------------
Links are not encoded only for registered users only! Plese login or register!







Rambo II / Rambo: First Blood Part II (1985) PL.BluRay.1080p.DTS.x264-Crash / POLSKI LEKTOR

Rambo 1-3 / Rambo 1-3 (1982-1988) PL.BluRay.1080p.DTS.x264-Crash / POLSKI LEKTOR

http://www.filmweb.pl/2.Rambo

czas trwania: 1 godz. 36 min.
gatunek: Akcja
premiera: 31 grudnia 1985 (Polska) 1985-12-31 22 maja 1985 (świat) 1985-05-22
reżyseria: George P. Cosmatos
scenariusz: James Cameron, Sylvester Stallone

John Rambo (Sylvester Stallone) trafia do więzienia. Jego dawny dowódca, pułkownik Trautman (Richard Crenna) dotrzymuje wcześniejszej obietnicy i doprowadza do uwolnienia go. Rambo otrzymuje zadanie odnalezienia ameryka?skich je?ców, którzy zaginęli w Wietnamie. Ostatnio przebywali w obozie, z którego jemu udało się uciec. Może odmówić udziału w misji, ale wtedy najbliższe pięć lat spędzi w kamieniołomach. Jeśli wypełni zadanie i powróci, prezydent daruje mu karę. Okazuje się, że ma zdobyć tylko
dowody na to, że je?cy nadal przebywają w obozie. Resztą ma się zająć Delta Force, której dowodził będzie pułkownik Trautman. Po wylądowaniu w dżungli, John jest zdany wyłącznie na siebie

Rambo 1-3 / Rambo 1-3 (1982-1988) PL.BluRay.1080p.DTS.x264-Crash / POLSKI LEKTOR
Rambo 1-3 / Rambo 1-3 (1982-1988) PL.BluRay.1080p.DTS.x264-Crash / POLSKI LEKTOR

Format : Matroska
File size : 8.88 GiB
Duration : 1h 38mn
Overall bit rate : 12.9 Mbps
Video
ID : 1
Format/Info : Advanced Video Codec
Format profile : High@L4.1
Duration : 1h 38mn
Bit rate : 10.7 Mbps
Nominal bit rate : 11.3 Mbps
Width : 1 916 pixels
Height : 818 pixels
Display aspect ratio : 2.35:1
Original display aspect ratio : 2.35:1
Frame rate : 23.976 fps
Stream size : 7.35 GiB (83%)
Writing library : x264 core 114 r1913 5fd3dce
Language : English
Audio #1
Format : DTS
Duration : 1h 38mn
Bit rate mode : Constant
Bit rate : 1 510 Kbps
Channel(s) : 6 channels
Stream size : 1.04 GiB (12%)
Language : English
Audio #2
Format : AC-3
Duration : 1h 38mn
Bit rate mode : Constant
Bit rate : 448 Kbps
Channel(s) : 6 channels
Stream size : 317 MiB (3%)
Title : Crash-Polski

Uwaga! Linki nie zakodowane tylko dla zarejestrowanych użytkowników!

Nie masz konta? Zarejestruj się za darmo!
----------------
Links are not encoded only for registered users only! Plese login or register!








Rambo III (1988) PL.BluRay.1080p.DTS.x264-Crash / POLSKI LEKTOR

Rambo 1-3 / Rambo 1-3 (1982-1988) PL.BluRay.1080p.DTS.x264-Crash / POLSKI LEKTOR

http://www.filmweb.pl/3.Rambo

czas trwania: 1 godz. 41 min.
gatunek: Akcja
premiera: 25 maja 1988 (świat) 1988-05-25
reżyseria: Peter MacDonald
scenariusz: Sylvester Stallone, Sheldon Lettich

Dawny dowódca i przyjaciel Johna Rambo (Sylvester Stallone) z czasów wojny w Wietnamie - pułkownik Trautman (Richard Crenna) wyrusza z tajną misją do Afganistanu. Wkrótce nadchodzi wiadomość, że został on pojmany i uwięziony w radzieckiej bazie wojskowej. Działania dyplomatyczne na rzecz jego uwolnienia nie przynoszą rezultatów. Oficjalna misja wojskowa jest oczywiście wykluczona. Rambo decyduje się sam wyruszyć na ratunek dowódcy.

Rambo 1-3 / Rambo 1-3 (1982-1988) PL.BluRay.1080p.DTS.x264-Crash / POLSKI LEKTOR
Rambo 1-3 / Rambo 1-3 (1982-1988) PL.BluRay.1080p.DTS.x264-Crash / POLSKI LEKTOR

Format : Matroska
File size : 8.89 GiB
Duration : 1h 44mn
Overall bit rate : 12.1 Mbps
Video
Format/Info : Advanced Video Codec
Format profile : High@L4.1
Duration : 1h 44mn
Bit rate : 9 937 Kbps
Nominal bit rate : 10.6 Mbps
Width : 1 920 pixels
Height : 818 pixels
Display aspect ratio : 2.35:1
Frame rate : 23.976 fps
Stream size : 7.28 GiB (82%)
Writing library : x264 core 114 r1913 5fd3dce
Language : English
Audio #1
Format : DTS
Duration : 1h 44mn
Bit rate mode : Constant
Bit rate : 1 510 Kbps
Channel(s) : 6 channels
Stream size : 1.11 GiB (12%)
Language : English
Audio #2
Format : AC-3
Duration : 1h 44mn
Bit rate mode : Constant
Bit rate : 448 Kbps
Channel(s) : 6 channels
Stream size : 336 MiB (4%)
Title : Crash-Polski


Uwaga! Linki nie zakodowane tylko dla zarejestrowanych użytkowników!

Nie masz konta? Zarejestruj się za darmo!
----------------
Links are not encoded only for registered users only! Plese login or register!


Użytkownik VIP

CrashRedVIP

#1 | Dodany: 19 Listopad 2011 17:14

ok
Użytkownik VIP

krzanowUżytkownik

#2 | Dodany: 19 Listopad 2011 17:45

ok
G.
Użytkownik VIP

stibo10Użytkownik

#3 | Dodany: 19 Listopad 2011 18:00

świetna wstawka ok
Użytkownik VIP

FifjorUżytkownik

#4 | Dodany: 19 Listopad 2011 21:19

dobrze jest synchronizowany dźwięk niech ktoś napisze
Użytkownik VIP

muzykomanUżytkownik

#5 | Dodany: 26 Listopad 2011 17:31

CrashRed!!!!!!!!!!! W tych nieco starszych filmach Jestes niezastapiony. Mam nadzieje, ze nie zapomnisz o czesci 3. Wielkie dzieki.

Pozdrawiam
Użytkownik VIP

CrashRedVIP

#6 | Dodany: 26 Listopad 2011 17:34

muzykoman,
dzieki, i nie ma strachu jak ja zaczynam jakas kolkcje znaczy to ze napewno bedzie predzej czy później skonczona :)
Użytkownik VIP

predator22Użytkownik

#7 | Dodany: 26 Listopad 2011 20:11

W 1 części filmu w języku angielskim audio brak synchro i zaciecia dzwięku są dabing polski jest dobry mam nadzieje że teraz jasno jest napisane dzięki
Użytkownik VIP

torpedomaxUżytkownik

#8 | Dodany: 26 Listopad 2011 23:06

Rambo Quadrologia (1982 - 2008) 720p AC3 x264 Lektor PL

Rambo: Pierwsza krew

Rozmiar pliku : 2.77 GB
Czas : 1h 33 min
Rozdzielczość : 1280x544
Wideo-Kodek : AVC , 4000 kb/s,
Audio-Kodek : AC-3 , 448 Kb/s

Rambo II

Rozmiar pliku : 2.8 GB
Czas : 1h 35 min
Rozdzielczość : 1280x544
Wideo-Kodek : AVC , 4000 kb/s,
Audio-Kodek : AC-3 , 448 Kb/s

Rambo III

Rozmiar pliku : 2.6 GB
Czas : 1h 35 min
Rozdzielczość : 1280x544
Wideo-Kodek : AVC , 4000 kb/s,
Audio-Kodek : AC-3 , 448 Kb/s



Rambo: Pierwsza krew :

Uwaga! Linki nie zakodowane tylko dla zarejestrowanych użytkowników!

Nie masz konta? Zarejestruj się za darmo!
----------------
Links are not encoded only for registered users only! Plese login or register!



Rambo II :

Uwaga! Linki nie zakodowane tylko dla zarejestrowanych użytkowników!

Nie masz konta? Zarejestruj się za darmo!
----------------
Links are not encoded only for registered users only! Plese login or register!



Rambo III :

Uwaga! Linki nie zakodowane tylko dla zarejestrowanych użytkowników!

Nie masz konta? Zarejestruj się za darmo!
----------------
Links are not encoded only for registered users only! Plese login or register!


Resident Evil ( 2002 - 2012 ) Kolekcja Multi.BluRay.1080p.x264.DTS-HDMA.DTS.AC3-DX Lektor i Napisy PL

http://www.exsite.pl/filmy_video_movies/filmy-hd-dvd5-dvd9/789890-kolekcja-resident-evil-2002-2012-bluray1080pduallaudiodtsac3x264-dx-engpl-napisy-pl.html

Gwiezdne wojny / Star Wars (1977-2005) THE.COMPLETE.SAGA.MULTi.HQ.1080p.BluRay.x264.DTS-HDMA.DTS.AC3-DX
LEKTOR, DUBBING i NAPISY PL


http://wklej.to/iE7tg
Użytkownik VIP

djbarneyUżytkownik

#9 | Dodany: 3 Grudzień 2011 16:45

Pozycja obowiązkowa na półce w BD wink
Na zaczepki idiot?w nie odpowiadam - no bo i po co...
___________________________________________
Użytkownik VIP

muzykomanUżytkownik

#10 | Dodany: 3 Grudzień 2011 17:50

CrashRed!!!!!!!!!!!!! Na Tobie mozna polegac, dotrzymujesz danego slowa. Wielkie dzieki za 3. Mam tez prosbe do Ciebie. Od dawna poszukuje 2 filmow z polskim lektorem:

1. Runaway Train z 1985 roku
2. A Clockwork Orange z 1971 roku

Gdybys je posiadal w swoich zbiorach i Mogl wrzucic na strone, bylbym Ci niezmiernie wdzieczny.

Pozdrawiam
Użytkownik VIP

qgrzegorzGość

#11 | Dodany: 4 Luty 2012 13:57

Rambo: Pierwsza krew / First Blood (1982) PL.BluRay.1080p.DTS.x264-Crash / POLSKI LEKTOR

Dane Techniczne:

General           : Rambo.First.Blood.Part.I.1982.PL.BluRay.1080p.DTS.x264-Crash.mkv
Format            : Matroska at 13,0 Mb/s
Length            : 8,71 GB for 1h 36 min. 8s 577ms

Video #0          : AVC at 10,8 Mb/s
Aspect            : 1916 x 820 (2.336) at 23.976 fps

Audio #0          : DTS at 1.510 Kb/s
Infos             : 6 kanałów, 48,0 KHz
Language          : en

Audio #1          : AC-3 at 448 Kb/s
Infos             : 6 kanałów, 48,0 KHz

INFO Lektor: lektor profesjonalny
Źródło obrazu: *Blu-ray/DVD*


Opis uploadu:
wielkość całości: 9.67 GB
rodzaj kompresji: RAR
zawartość uploadu: plik .mkv
wersja językowa: PL/EN
Dane naprawcze:10%


Download:

Uwaga! Linki nie zakodowane tylko dla zarejestrowanych użytkowników!

Nie masz konta? Zarejestruj się za darmo!
----------------
Links are not encoded only for registered users only! Plese login or register!

HASŁO:

filmik


John Rambo (2008) 1080p Dual Audio (Lektor PL / Eng)

Dane Techniczne:

General           : John Rambo (2008).mkv
Format            : Matroska at 20,7 Mb/s
Length            : 12,6 GB for 1h 27 min. 12s 736ms

Video #0          : AVC
Aspect            : 1920 x 1080 (1.778) at 25.000 fps

Audio #0          : AC-3 at 640 Kb/s
Infos             : 6 kanałów, 48,0 KHz
Language          : pl

Audio #1          : TrueHD
Infos             : 6 kanałów, 48,0 KHz
Language          : en

Text #0           : PGS
Language          : pl

INFO Lektor: lektor profesjonalny
Źródło obrazu: *Blu-ray/DVD*


Opis uploadu:
wielkość całości: 13.99 GB
rodzaj kompresji: RAR
zawartość uploadu: plik .mkv
wersja językowa: PL/EN
Dane naprawcze:10%


Download:

Uwaga! Linki nie zakodowane tylko dla zarejestrowanych użytkowników!

Nie masz konta? Zarejestruj się za darmo!
----------------
Links are not encoded only for registered users only! Plese login or register!


HASŁO:

filmik

Napisz do mnie na PW jeśli linki wygasły. Zrobię reupload.
Użytkownik VIP

nowystylnowydillUżytkownik

#12 | Dodany: 5 Czerwiec 2012 18:21

Rambo First Blood (1982) BRRip.XviD.AC3-Lektor PL

CD1 Plik : 1.22 GB (1.22 GB), czas 0:44:52, rodzaj: AVI, 1 ścieżka(i) audio, jakość 86
Video : 1.08 GB, 3455 Kbps, 23.976 fps, rozdz. 720*304 (Nieznane), XVID = XVID Mpeg-4,
Audio : 143 MB, 448 Kbps, 48000 Hz, 6 kanał(y), 0x2000 = AC3 DVM, CBR,

CD2 Plik : 1.01 GB (1.01 GB), czas 0:48:19, rodzaj: AVI, 1 ścieżka(i) audio, jakość 86
Video : 878 MB, 2542 Kbps, 23.976 fps, rozdz. 720*304 (Nieznane), XVID = XVID Mpeg-4,
Audio : 154 MB, 448 Kbps, 48000 Hz, 6 kanał(y), 0x2000 = AC3 DVM, CBR,


http://turbobit.net/f7ngg8ugkms9.html
http://turbobit.net/fpjy915zunk5.html


Rambo: First Blood Part II / Rambo 2 (1985) DVDRip XviD AC3 Lektor PL

CD 1 Plik : 1007 MB (1007 MB), czas 0:50:12, rodzaj: AVI, 1 ścieżka(i) audio, jakość
Video : 846 MB, 2358 Kbps, 23.976 fps, rozdz. 720*304 (Nieznane), XVID = XVID Mpeg-4,
Audio : 160 MB, 448 Kbps, 48000 Hz, 6 kanał(y), 0x2000 = AC3 DVM, CBR,

Plik : 1.19 GB (1.19 GB), czas 0:45:43, rodzaj: AVI, 1 ścieżka(i) audio, jakość 86
Video : 1.04 GB, 3275 Kbps, 23.976 fps, rozdz. 720*304 (Nieznane), XVID = XVID Mpeg-4,
Audio : 146 MB, 448 Kbps, 48000 Hz, 6 kanał(y), 0x2000 = AC3 DVM, CBR,


http://turbobit.net/e0sz16fsa3ev.html
http://turbobit.net/7ivabhujiw7y.html

Użytkownik VIP

macbykUżytkownik

#13 | Dodany: 23 Maj 2013 01:02

wrzuci ktoś na uploaded/netload/catshare? wiekszosc juz nie działa.

Informacje

Jeżeli chcesz skomentować artykuł musisz być zarejestrowany na stronie.