EXSite.pl - Portal ze wszystkim Mamy tutaj wszystko

NIE MASZ JESZCZE KONTA? ZAREJESTRUJ SIĘ ZA DARMO!   
Przypomnij hasło X

Underworld 2 -3 / Underworld 2-3 (2006 - 2009) PL.BluRay.720p.x264-Crash / POLSKI LEKTOR +mHD

Dodał: CrashRed 11 Grudzień 2011 16:06


Underworld 2 - Ewolucja / Underworld: Evolution (2006) PL.BluRay.720p.x264-Crash / POLSKI LEKTOR

Underworld 2 -3  / Underworld 2-3 (2006 - 2009) PL.BluRay.720p.x264-Crash / POLSKI LEKTOR  +mHD

Underworld 2 -3  / Underworld 2-3 (2006 - 2009) PL.BluRay.720p.x264-Crash / POLSKI LEKTOR  +mHD
http://www.filmweb.pl/Underworld.Evolution

czas trwania: 1 godz. 46 min.
gatunek: Horror, Akcja
premiera: 20 stycznia 2006 (Polska) 2006-01-20 12 stycznia 2006 (świat) 2006-01-12
reżyseria: Len Wiseman
scenariusz: Danny McBride

Kolejna część mrocznych przygód pięknej wojowniczki Seleny na tle odwiecznej, śmiertelnej walki pomiędzy rasą władców, a arystokratycznymi Wampirami, a zbuntowaną rasą brutalnych, siejących grozę Lykanów. Cofniemy się do czasów prehistorycznych, poznamy dalszy ciąg rodzącego się uczucia pomiędzy Seleną a Michaelem. Tym razem sceny walk sfilmowano z brawurą i iście epickim rozmachem. Zobaczymy imponujące efekty specjalne w mrocznej, bogatej scenerii. Poznamy początki wielkiej wojny i największą bitwę w historii dwóch ras. Pojedynki, intrygi, zakazana miłość, a wszystko to w konwencji gotyckiego fantasy i ultranowoczesnej baśni.


Underworld 2 -3  / Underworld 2-3 (2006 - 2009) PL.BluRay.720p.x264-Crash / POLSKI LEKTOR  +mHD
Underworld 2 -3  / Underworld 2-3 (2006 - 2009) PL.BluRay.720p.x264-Crash / POLSKI LEKTOR  +mHD

Format : Matroska
File size : 4.68 GiB
Duration : 1h 48mn
Overall bit rate : 6 169 Kbps
Movie name : Underworld.Evolution.2006.720p.x264-ESiR
Video
Format/Info : Advanced Video Codec
Format profile : High@L5.1
Duration : 1h 48mn
Bit rate : 5 389 Kbps
Width : 1 280 pixels
Height : 720 pixels
Display aspect ratio : 16:9
Frame rate : 23.976 fpssive
Bits/(Pixel*Frame) : 0.244
Stream size : 3.91 GiB (83%)
Title : Underworld: Evolution
Writing library : x264 core 54 svn-614
Language : English
Audio #1
Format : AC-3
Duration : 1h 48mn
Bit rate mode : Constant
Bit rate : 448 Kbps
Channel(s) : 6 channels
Title : AC3 5.1
Language : English
Audio #2
Format : AC-3
Duration : 1h 48mn
Bit rate mode : Constant
Bit rate : 448 Kbps
Channel(s) : 6 channels
Stream size : 348 MiB (7%)
Title : Crash-Polski



Underworld 2 -3  / Underworld 2-3 (2006 - 2009) PL.BluRay.720p.x264-Crash / POLSKI LEKTOR  +mHD
Uwaga! Linki nie zakodowane tylko dla zarejestrowanych użytkowników!

Nie masz konta? Zarejestruj się za darmo!
----------------
Links are not encoded only for registered users only! Plese login or register!





Underworld 2 - Ewolucja / Underworld: Evolution (2006) PL.m-720p.BluRay.x264-Crash / POLSKI LEKTOR

Format : Matroska
File size : 2.37 GiB
Duration : 1h 48mn
Overall bit rate : 3 120 Kbps
Video
Format/Info : Advanced Video Codec
Format profile : High@L4.1
Duration : 1h 48mn
Bit rate : 2 726 Kbps
Width : 1 280 pixels
Height : 528 pixels
Display aspect ratio : 2.40:1
Original display aspect ratio : 2.40:1
Frame rate : 23.976 fps
Stream size : 1.98 GiB (84%)
Writing library : x264 core 67 r1139M 1024283
Language : English
Audio
Format : AC-3
Duration : 1h 48mn
Bit rate mode : Constant
Bit rate : 448 Kbps
Channel(s) : 6 channels
Stream size : 348 MiB (14%)
Title : Crash-Polsk

Uwaga! Linki nie zakodowane tylko dla zarejestrowanych użytkowników!

Nie masz konta? Zarejestruj się za darmo!
----------------
Links are not encoded only for registered users only! Plese login or register!












Underworld: Bunt Lykanów / Underworld: Rise of the Lycans (2009) PL.720p.BluRay.x264-Crash / POLSKI LEKTOR

Underworld 2 -3  / Underworld 2-3 (2006 - 2009) PL.BluRay.720p.x264-Crash / POLSKI LEKTOR  +mHD

http://www.filmweb.pl/film/Underworld+Bunt+Lykan%C3%B3w-2009-295316

czas trwania: 1 godz. 33 min.
gatunek: Horror, Akcja
premiera: 23 stycznia 2009 (Polska) 2009-01-23 22 stycznia 2009 (świat) 2009-01-22
reżyseria: Patrick Tatopoulos
scenariusz: Danny McBride, Howard McCain (więcej...)

Filmowa opowieść śledzi początki trwającej od wieków krwawej waśni arystokratycznych wampirów znanych jako Handlarze śmiercią i ich byłych niewolników Lykanów. W czasach wczesnego średniowiecza, młody Lykan o imieniu Lucian (Michael Sheen) wyłania się jako potężny przywódca i gromadzi wilkołaki, aby powstały przeciwko Viktorowi (Bill Nighy), okrutnemu królowi wampirów, który uczynił z nich niewolników. W walce przeciwko armii Handlarzy śmiercią i o wolność dla Lykanów do Luciana dołącza jego kochanka, Sonja (Rhona Mitra).

Underworld 2 -3  / Underworld 2-3 (2006 - 2009) PL.BluRay.720p.x264-Crash / POLSKI LEKTOR  +mHD
Underworld 2 -3  / Underworld 2-3 (2006 - 2009) PL.BluRay.720p.x264-Crash / POLSKI LEKTOR  +mHD

Format : Matroska
File size : 4.21 GiB
Duration : 1h 32mn
Overall bit rate : 6 514 Kbps
Video
Format/Info : Advanced Video Codec
Format profile : High@L4.1
Duration : 1h 32mn
Bit rate : 6 128 Kbps
Width : 1 280 pixels
Height : 536 pixels
Display aspect ratio : 2.35:1
Frame rate : 23.976 fps
Stream size : 3.88 GiB (92%)
Writing library : x264 core 67 r1139M 1024283
Language : English
Audio
Format : AC-3
Duration : 1h 32mn
Bit rate mode : Constant
Bit rate : 384 Kbps
Channel(s) : 6 channels
Stream size : 254 MiB (6%)
Title : Crash-Polski
Language : Polish


Uwaga! Linki nie zakodowane tylko dla zarejestrowanych użytkowników!

Nie masz konta? Zarejestruj się za darmo!
----------------
Links are not encoded only for registered users only! Plese login or register!




Underworld: Bunt Lykanów / Underworld: Rise of the Lycans (2009) PL.m-720p.BluRay.x264-Crash / POLSKI LEKTOR


Format : Matroska
File size : 2.09 GiB
Duration : 1h 32mn
Overall bit rate : 3 233 Kbps
Video
Format/Info : Advanced Video Codec
Format profile : High@L4.1
Duration : 1h 32mn
Bit rate : 2 850 Kbps
Width : 1 280 pixels
Height : 528 pixels
Display aspect ratio : 2.40:1
Frame rate : 23.976 fps
Stream size : 1.80 GiB (86%)
Writing library : x264 core 115 r1995 c1e60b9
Language : English
Audio
Format : AC-3
Duration : 1h 32mn
Bit rate mode : Constant
Bit rate : 384 Kbps
Channel(s) : 6 channels
Stream size : 254 MiB (12%)
Title : Crash-Polski
Language : Polish


Uwaga! Linki nie zakodowane tylko dla zarejestrowanych użytkowników!

Nie masz konta? Zarejestruj się za darmo!
----------------
Links are not encoded only for registered users only! Plese login or register!





Użytkownik VIP

CrashRedVIP

#1 | Dodany: 19 Listopad 2011 17:45

ok
Użytkownik VIP

man_u20Użytkownik

#2 | Dodany: 22 Listopad 2011 17:01

Można prosić także o pierwsza cześć w HD ??

pozdrawiam
Użytkownik VIP

79andrzej79Użytkownik

#3 | Dodany: 27 Listopad 2011 20:13

Popieram manu_u20, 1 część bardzo mile widziana w BluRay smile Dzieki za SUPER wstawke smile
Użytkownik VIP

FifjorUżytkownik

#4 | Dodany: 1 Grudzień 2011 15:50

jak wstawiasz takie kolekcje to staraj sie w calosci ale i tak dobra wstawka chyba ze masz zamiar wstawic jeszcze 1 czesc?
Użytkownik VIP

MarucinsUżytkownik

#5 | Dodany: 9 Grudzień 2011 07:00

wrzuć m720 Underworld: Rise of the Lycans
Użytkownik VIP

MarucinsUżytkownik

#6 | Dodany: 13 Grudzień 2011 06:47

Dzięki!

Teraz jeszcze kwestia Underworld I [Extendet Cut] z lektorem i m720p do pełni szczęścia
Użytkownik VIP

bulcyfixUżytkownik

#7 | Dodany: 15 Grudzień 2011 18:28

thx
Użytkownik VIP

juankisas1Użytkownik

#8 | Dodany: 17 Luty 2014 18:50

Underworld 2: Ewolucja / Underworld: Evolution (2006) 1080p.CUSTOM.BluRay.x264.DTS.5.1.AC3-LEON 345 | Lektor i Napisy PL

Dane techniczne:
Format : Matroska at 16,2 Mb/s
Length : 12,0 GB for 1h 46 min. 22s 561ms

Video #0 : AVC
Aspect : 1920 x 1080 (1.778) at 23.976 fps

Audio #0 : AC-3 at 448 Kb/s
Infos : 6 kanałów, 48,0 KHz
Language : pl

Audio #1 : AC-3 at 640 Kb/s
Infos : 6 kanałów, 48,0 KHz
Language : en

Audio #2 : DTS at 755 Kb/s
Infos : 6 kanałów, 48,0 KHz
Language : pl

Audio #3 : DTS at Nieznany / 1.509 Kb/s
Infos : 6 kanałów, 48,0 KHz
Language : en

Text #0 : UTF-8
Language : pl

Text #1 : PGS
Language : en

Text #2 : UTF-8


Opis uploadu:
Wielkość Uploadu: 12GB
Rodzaj Kompresji: RAR
Zawartość Uploadu: Plik .mkv
Wersja Językowa: profesjonalny polski lektor, angielski, polskie napisy, angielskie napisy


Download
(można pobierać naprzemiennie):


Uwaga! Linki nie zakodowane tylko dla zarejestrowanych użytkowników!

Nie masz konta? Zarejestruj się za darmo!
----------------
Links are not encoded only for registered users only! Plese login or register!


Uwaga! Linki nie zakodowane tylko dla zarejestrowanych użytkowników!

Nie masz konta? Zarejestruj się za darmo!
----------------
Links are not encoded only for registered users only! Plese login or register!
Widzisz niedziałające moje linki? Napisz do mnie prywatną wiadomość, a wrzucę ponownie. Nie wrzucam poszczególnych partów, tylko całość od nowa. Pamiętaj napisać, czy to ma być film, czy gra na pc, xbox itd. jdownloader ma problem z wypakowaniem paczki, która była stworzona w najnowszym winrar`ze. Dlatego wypakowuj najnowszym winrar`em, czy freearc.
Użytkownik VIP

juankisas1Użytkownik

#9 | Dodany: 11 Marzec 2014 23:48

Underworld: Bunt Lykanów - Underworld: Rise of the Lycans (2009) 1080p.TRUE.HD.5.1.AC3.BluRay.x264-LEON 345 |Lektor i Napisy PL

Dane techniczne:
Format : Matroska at 16,7 Mb/s
Length : 10,8 GB for 1h 32 min. 28s 608ms

Video #0 : AVC
Aspect : 1920 x 1080 (1.778) at 23.976 fps

Audio #0 : AC-3 at 640 Kb/s
Infos : 6 kanałów, 48,0 KHz
Language : pl

Audio #1 : AC-3 at 640 Kb/s
Infos : 6 kanałów, 48,0 KHz
Language : en

Audio #2 : TrueHD
Infos : 6 kanałów, 48,0 KHz
Language : en

Text #0 : PGS
Language : en

Text #1 : PGS
Language : pl

Text #2 : UTF-8


Opis uploadu:
Wielkość Uploadu: 10,8GB
Rodzaj Kompresji: RAR
Zawartość Uploadu: Plik .mkv, .srt, .txt
Wersja Językowa: profesjonalny polski lektor, angielski, polskie napisy, angielskie napisy


Download
(można pobierać naprzemiennie):


Uwaga! Linki nie zakodowane tylko dla zarejestrowanych użytkowników!

Nie masz konta? Zarejestruj się za darmo!
----------------
Links are not encoded only for registered users only! Plese login or register!


Uwaga! Linki nie zakodowane tylko dla zarejestrowanych użytkowników!

Nie masz konta? Zarejestruj się za darmo!
----------------
Links are not encoded only for registered users only! Plese login or register!
Widzisz niedziałające moje linki? Napisz do mnie prywatną wiadomość, a wrzucę ponownie. Nie wrzucam poszczególnych partów, tylko całość od nowa. Pamiętaj napisać, czy to ma być film, czy gra na pc, xbox itd. jdownloader ma problem z wypakowaniem paczki, która była stworzona w najnowszym winrar`ze. Dlatego wypakowuj najnowszym winrar`em, czy freearc.

Informacje

Jeżeli chcesz skomentować artykuł musisz być zarejestrowany na stronie.